Notice: Constant LANG_TORRENT_ERROR_UPLOAD_FILE already defined in /home/admin/web/pro-jazz.com/public_html/system/languages/ru/controllers/tracker/tracker.php on line 19
2019 Labelle - Orchestre Univers {InFine} [24-96],

Поиск

2019 Labelle - Orchestre Univers {InFine} [24-96]

2019 Labelle - Orchestre Univers {InFine} [24-96]
Дата записи диска:
24 марта 2018
Место записи:
TEAT Plein Air, St-Gilles, Réunion Island
Дата издания диска:
5 апреля 2019
Носитель:
WEB
Формат:
PCM
Тип рипа:
tracks
Контейнер:
FLAC (*.flac)
Количество каналов:
2.0
Разрядность/ЧД:
24/96
Битрейт аудио:
lossless
Время звучания:
01:35:37
Наличие сканов:
только обложка
Наличие водяных знаков:
нет
Релизёр (источник):
M0p94ok

Треклист:

01. Playing at the End of the Universe (Orchestre univers Version)  04:39
02. émotion du vide  02:54
03. Soul Introspection (Orchestre univers Version)Prakash Sontakke  06:16
04. Le moment présent  02:24
05. Oublie-voie-espace-dimension  04:34
06. O  04:36
07. Mécanique inverséePrakash Sontakke  05:09
08. Stase, différence et répétition  04:03
09. re-créer (Orchestre univers Version)  07:52
10. La viePrakash Sontakke  05:19
11. Orchestre univers (Full Album Version)  47:51

Лог проверки качества
foobar2000 1.3.16 / Dynamic Range Meter 1.1.1
log date: 2019-04-05 03:31:38

--------------------------------------------------------------------------------
Analyzed: Labelle / Orchestre univers
--------------------------------------------------------------------------------

DR         Peak         RMS     Duration Track
--------------------------------------------------------------------------------
DR12      -0.62 dB   -16.36 dB      4:40 01-Playing at the End of the Universe
DR11      -0.69 dB   -17.82 dB      2:55 02-émotion du vide
DR9       -0.62 dB   -12.44 dB      6:16 03-Soul Introspection
DR9       -0.62 dB   -11.22 dB      2:25 04-Le moment présent
DR10      -0.62 dB   -12.57 dB      4:35 05-Oublie-voie-espace-dimension
DR6       -0.62 dB    -9.29 dB      4:37 06-O
DR10      -0.62 dB   -13.92 dB      5:09 07-Mécanique inversée
DR11      -0.75 dB   -15.55 dB      4:04 08-Stase, différence et répétition
DR8       -0.62 dB   -11.45 dB      7:53 09-re-créer
DR10      -0.62 dB   -13.39 dB      5:19 10-La vie
DR8       -0.62 dB   -12.59 dB     47:52 11-Orchestre univers
--------------------------------------------------------------------------------

Number of tracks:  11
Official DR value: DR9

Samplerate:        96000 Hz
Channels:          2
Bits per sample:   24
Bitrate:           2711 kbps
Codec:             FLAC
================================================================================
Приватный:
Нет (DHT включён)
Размер:
1.82 Гб (1,949,456,799 байт) » файлов: 13
Участники:
3 раздают, 0 качают (3 участников всего)
Внешние участники:
--- [ Обновить ]
For power users only: no seeders - write to support@pro-jazz.com. Для power user: нет сидеров - пишите на support@pro-jazz.com.
16:10
52
Нет комментариев. Ваш будет первым!