Поиск

1960 Shelly Manne and His Men - Yesterdays (2019) {RevOla} [24-44,1]

1960 Shelly Manne and His Men - Yesterdays (2019) {RevOla} [24-44,1]
Стили:
Дата записи диска:
22 февраля, 2 марта 1960
Место записи:
Zurich; Copenhagen
Издатель (лейбл):
Битрейт аудио:
lossless
Доп. инфо:

Формат записи/Источник записи: [TR24][OF]
Издание: Remastered
Год издания/переиздания диска: 1960/2019
Издатель (лейбл): RevOla
Продолжительность: 00:44:48
Наличие сканов в содержимом раздачи: Нет

Контейнер: FLAC (*.flac)
Тип рипа: tracks
Разрядность: 24/44,1
Количество каналов: 2.0

Источник (релизер): Qobuz

Лог проверки качества
foobar2000 1.3.16 / Dynamic Range Meter 1.1.1
log date: 2019-10-03 23:35:10

--------------------------------------------------------------------------------
Analyzed: Shelly Manne / Yesterdays
--------------------------------------------------------------------------------

DR         Peak         RMS     Duration Track
--------------------------------------------------------------------------------
DR10       0.00 dB   -13.06 dB      6:38 01-Cabu (Remastered)
DR12       0.00 dB   -16.51 dB     13:34 02-Bag's Groove (Remastered)
DR10       0.00 dB   -13.09 dB      7:48 03-Poinciana (Remastered)
DR9        0.00 dB   -13.11 dB      8:28 04-Straight, No Chaser (Remastered)
DR9        0.00 dB   -12.86 dB      8:21 05-Yesterdays (Remastered)
--------------------------------------------------------------------------------

Number of tracks:  5
Official DR value: DR10

Samplerate:        44100 Hz
Channels:          2
Bits per sample:   24
Bitrate:           1283 kbps
Codec:             FLAC
================================================================================
No seeders - write personal message to M0p94ok. Any questions - support@pro-jazz.com.
Нет сидеров - пишите в личку M0p94ok. Есть вопросы - support@pro-jazz.com
20:30
174
Нет комментариев. Ваш будет первым!