Поиск

1966 The 3 Sounds - Out Of This World (2013) {Blue Note} [24-192]

1966 The 3 Sounds - Out Of This World (2013) {Blue Note} [24-192]
Стили:
Дата записи диска:
4 февраля, 7 марта, 8 марта 1962
Место записи:
Van Gelder Recording Studio, Englewood Cliffs, New Jersey, USA
Издатель (лейбл):
Номер по каталогу:
BLP 4197
Битрейт аудио:
lossless
Доп. инфо:

Формат записи/Источник записи: [TR24][OF]
Издание: Remastered
Год издания/переиздания диска: 1966/2013
Продолжительность: 00:41:05
Наличие сканов в содержимом раздачи: Нет

Контейнер: FLAC (*.flac)
Тип рипа: tracks
Разрядность: 24/192
Количество каналов: 2.0

Источник (релизер): PROSTUDIOMASTERS

Лог проверки качества
foobar2000 1.3.11 / Dynamic Range Meter 1.1.1
log date: 2016-09-13 02:35:19

--------------------------------------------------------------------------------
Analyzed: The 3 Sounds / Out of this World
--------------------------------------------------------------------------------

DR         Peak         RMS     Duration Track
--------------------------------------------------------------------------------
DR13      -1.37 dB   -16.67 dB      3:01 01-Girl Of My Dreams
DR14      -1.92 dB   -20.16 dB      6:31 02-Out Of The Past
DR13      -1.40 dB   -17.33 dB      6:21 03-Just In Time
DR14      -1.50 dB   -20.12 dB      3:40 04-I'll Be Around
DR16      -0.87 dB   -23.16 dB      7:00 05-My Silent Love
DR14      -2.01 dB   -19.41 dB      3:36 06-Sanctified Sue
DR14      -1.06 dB   -18.80 dB      6:36 07-Out Of This World
DR14       0.00 dB   -17.46 dB      4:22 08-You Make Me Feel So Young
--------------------------------------------------------------------------------

Number of tracks:  8
Official DR value: DR14

Samplerate:        192000 Hz
Channels:          2
Bits per sample:   24
Bitrate:           5884 kbps
Codec:             FLAC
================================================================================
No seeders - write personal message to M0p94ok. Any questions - support@pro-jazz.com.
Нет сидеров - пишите в личку M0p94ok. Есть вопросы - support@pro-jazz.com
12:55
320
Нет комментариев. Ваш будет первым!