Поиск

2015 Secret Keeper - Emerge {Intakt CD 249} [24-48]

2015 Secret Keeper - Emerge {Intakt CD 249} [24-48]
Дата записи диска:
16 июня - 18 июня 2013
Место записи:
Butler Plaza, Brooklyn, New York City, NY, USA
Дата издания диска:
15 марта 2015
Издатель (лейбл):
Номер по каталогу:
CD 249
Носитель:
WEB
Формат:
PCM
Тип рипа:
tracks+.cue
Контейнер:
APE (*.ape)
Количество каналов:
2.0
Разрядность/ЧД:
24/48
Битрейт аудио:
lossless
Время звучания:
00:49:48
Наличие сканов:
web
Наличие водяных знаков:
нет
Страна-производитель диска (релиза):
Switzerland
Релизёр (источник):
M0p94ok

Треклист:

1. What'll I Do  03:56
2. Emerge  05:25
3. In Time You Yell  05:24
4. Disproportionate Endings  07:07
5. A Muddle of Hope  04:40
6. Bridge Loss Sequence  06:05
7. Nakata  04:39
8. Turns to White Gold  06:11
9. Erie  06:21

Лог проверки качества
foobar2000 1.6.2 / Dynamic Range Meter 1.1.1
log date: 2021-01-10 23:03:14

--------------------------------------------------------------------------------
Analyzed: Secret Keeper / Emerge
--------------------------------------------------------------------------------

DR         Peak         RMS     Duration Track
--------------------------------------------------------------------------------
DR15      -0.65 dB   -22.00 dB      3:57 01-What'll I Do?
DR13      -0.10 dB   -16.18 dB      5:25 02-Emerge
DR11      -0.10 dB   -14.64 dB      5:25 03-In Time You Yell
DR14      -0.10 dB   -19.51 dB      7:07 04-Disproportionate Endings
DR12      -0.10 dB   -14.79 dB      4:40 05-A Muddle of Hope
DR11      -0.10 dB   -14.87 dB      6:05 06-Bridge Loss Sequence
DR12      -0.10 dB   -18.32 dB      4:40 07-Nakata
DR12      -0.10 dB   -16.40 dB      6:12 08-Turns to White Gold
DR15      -0.91 dB   -22.38 dB      6:21 09-Erie
--------------------------------------------------------------------------------

Number of tracks:  9
Official DR value: DR13

Samplerate:        48000 Hz
Channels:          2
Bits per sample:   24
Bitrate:           1266 kbps
Codec:             FLAC
================================================================================
Приватный:
Нет (DHT включён)
Размер:
468.10 Мб (490,841,180 байт) » файлов: 11
Участники:
1 раздают, 0 качают (1 участников всего)
Внешние участники:
--- [ Обновить ]
No seeders - write personal message to M0p94ok. Any questions - support@pro-jazz.com.
Нет сидеров - пишите в личку M0p94ok. Есть вопросы - support@pro-jazz.com
00:14
145
Нет комментариев. Ваш будет первым!