Поиск

2012 Lionel Belmondo Trio - Plays European Standards {Discograph 6149982} [24-48]

2012 Lionel Belmondo Trio - Plays European Standards {Discograph 6149982} [24-48]
Стили:
Дата записи диска:
9 августа - 10 августа 2012
Место записи:
Daosound Studio
Дата издания диска:
6 ноября 2012
Номер по каталогу:
6149982
Носитель:
WEB
Формат:
PCM
Тип рипа:
tracks+.cue
Контейнер:
APE (*.ape)
Количество каналов:
2.0
Разрядность/ЧД:
24/48
Битрейт аудио:
lossless
Время звучания:
00:50:37
Наличие сканов:
да
Наличие водяных знаков:
нет
Страна-производитель диска (релиза):
France
Релизёр (источник):
M0p94ok

Треклист:

01. Passionate  05:18
02. Cercle Mineur  05:04
03. The Love Of A Dead Man  06:06
04. Elégie  02:09
05. Désillusion  04:30
06. Sérénade  02:21
07. Come Sweet Death  05:23
08. Prélude  01:46
09. Assimilation  06:40
10. Song To The Evening Star  03:16
11. In the bleak midwinter  03:24
12. Désillusion: Alternative Version (Bonus Track)  04:40

Лог проверки качества
foobar2000 1.6.2 / Dynamic Range Meter 1.1.1
log date: 2021-01-10 14:52:09

--------------------------------------------------------------------------------
Analyzed: Lionel Belmondo / European Standards
--------------------------------------------------------------------------------

DR         Peak         RMS     Duration Track
--------------------------------------------------------------------------------
DR11      -0.10 dB   -13.23 dB      5:19 01-Passionate
DR10      -0.10 dB   -12.88 dB      5:05 02-Cercle Mineur
DR11      -0.10 dB   -14.72 dB      6:06 03-The Love Of A Dead Man
DR8       -1.17 dB   -13.64 dB      2:09 04-Elégie
DR10      -0.10 dB   -12.28 dB      4:31 05-Désillusion
DR12      -0.41 dB   -16.15 dB      2:21 06-Sérénade
DR10      -0.10 dB   -12.85 dB      5:23 07-Come Sweet Death
DR9       -2.67 dB   -14.49 dB      1:46 08-Prélude
DR12      -0.10 dB   -14.12 dB      6:40 09-Assimilation
DR9       -1.40 dB   -14.77 dB      3:16 10-Song To The Evening Star
DR10      -0.10 dB   -12.49 dB      3:25 11-In the bleak midwinter
DR11      -0.10 dB   -13.57 dB      4:40 12-Désillusion: Alternative Version (Bonus Track)
--------------------------------------------------------------------------------

Number of tracks:  12
Official DR value: DR10

Samplerate:        48000 Hz
Channels:          2
Bits per sample:   24
Bitrate:           1704 kbps
Codec:             FLAC
================================================================================
Приватный:
Нет (DHT включён)
Размер:
592.41 Мб (621,184,117 байт) » файлов: 15
Участники:
5 раздают, 0 качают (5 участников всего)
Внешние участники:
--- [ Обновить ]
Скорость:
0/c 35.84 Кб/c
No seeders - write personal message to M0p94ok. Any questions - support@pro-jazz.com.
Нет сидеров - пишите в личку M0p94ok. Есть вопросы - support@pro-jazz.com
16:55
153
Нет комментариев. Ваш будет первым!