Поиск

2010 Dave Brubeck - Lullabies (2020) {Dave Brubeck} [24-48]

2010 Dave Brubeck - Lullabies (2020) {Dave Brubeck} [24-48]
Стили:
Дата переиздания диска:
6 ноября 2020
Битрейт аудио:
lossless
Доп. инфо:

Формат записи/Источник записи: [TR24][OF]
Год издания/переиздания диска: 2010/2020
Продолжительность: 00:42:35
Наличие сканов в содержимом раздачи: Нет

Контейнер: FLAC (*.flac)
Тип рипа: tracks
Разрядность: 24/48
Количество каналов: 2.0

Источник (релизер): HIGHRESAUDIO

Лог проверки качества
foobar2000 1.6.1 / Dynamic Range Meter 1.1.1
log date: 2020-11-05 16:54:13

--------------------------------------------------------------------------------
Analyzed: Dave Brubeck / Lullabies
--------------------------------------------------------------------------------

DR         Peak         RMS     Duration Track
--------------------------------------------------------------------------------
DR12      -4.16 dB   -19.52 dB      3:11 01-Brahms Lullaby
DR12      -5.85 dB   -20.90 dB      3:31 02-When It’s Sleepy Time Down South
DR12      -5.40 dB   -20.31 dB      3:00 03-Over The Rainbow
DR11      -5.20 dB   -20.30 dB      3:14 04-Danny Boy
DR14      -6.32 dB   -24.95 dB      2:10 05-Going To Sleep
DR11      -6.81 dB   -21.06 dB      2:29 06-There’s No Place Like Home
DR13      -6.50 dB   -22.56 dB      2:46 07-Lullaby For Iola
DR12      -9.22 dB   -24.31 dB      4:22 08-Koto Song
DR11      -7.17 dB   -21.68 dB      3:08 09-All Through The Night
DR13      -6.26 dB   -23.22 dB      2:54 10-Softly, William, Softly
DR11      -6.96 dB   -21.99 dB      2:39 11-A Dream Is A Wish Your Heart Makes
DR11      -6.43 dB   -20.96 dB      2:21 12-Briar Bush
DR11      -6.66 dB   -21.43 dB      2:23 13-Sleep
DR12      -7.27 dB   -23.10 dB      3:31 14-Summertime
DR11      -7.17 dB   -23.51 dB      1:04 15-Brahms Lullaby
--------------------------------------------------------------------------------

Number of tracks:  15
Official DR value: DR12

Samplerate:        48000 Hz
Channels:          2
Bits per sample:   24
Bitrate:           1230 kbps
Codec:             FLAC
================================================================================
No seeders - write personal message to M0p94ok. Any questions - support@pro-jazz.com.
Нет сидеров - пишите в личку M0p94ok. Есть вопросы - support@pro-jazz.com
13:29
242
Нет комментариев. Ваш будет первым!