Поиск

2014 Trio 3 - Wiring (feat. Oliver Lake, Reggie Workman & Andrew Cyrille) {Intakt} [24-88,2]

2014 Trio 3 - Wiring (feat. Oliver Lake, Reggie Workman & Andrew Cyrille) {Intakt} [24-88,2]
Дата записи диска:
14 августа - 15 августа 2013
Место записи:
Sear Sound Studio, New York City, NY, USA
Дата издания диска:
5 августа 2014
Издатель (лейбл):
Номер по каталогу:
233
Носитель:
WEB
Формат:
PCM
Тип рипа:
tracks+.cue
Контейнер:
APE (*.ape)
Количество каналов:
2.0
Разрядность/ЧД:
24/88,2
Битрейт аудио:
lossless
Время звучания:
01:09:46
Наличие сканов:
да
Страна-производитель диска (релиза):
USA
Релизёр (источник):
M0p94ok
Доп. инфо:

Летом 2013 года Лейк (Oliver Lake), Уоркман (Reggie Workman), Сирил (Andrew Cyrille) пригласили Виджая Айера (Vijay Iyer) на недельную резиденцию в нью-йоркском джаз-клубе Birdland, прежде чем они записали этот альбом. Таким образом Айер стал четвёртым приглашённым пианистом, сотрудничавшим с Trio 3, после Ирен Швейцер (Irène Schweizer), Джери Аллен (Geri Allen) и Джейсона Морана (Jason Moran).

Лог проверки качества
foobar2000 1.6.2 / Dynamic Range Meter 1.1.1
log date: 2021-01-10 01:49:30

--------------------------------------------------------------------------------
Analyzed: Trio 3 / Wiring (feat. Oliver Lake, Reggie Workman & Andrew Cyrille)
--------------------------------------------------------------------------------

DR         Peak         RMS     Duration Track
--------------------------------------------------------------------------------
DR12      -0.31 dB   -14.38 dB      6:40 01-The Prowl
DR12      -0.29 dB   -13.72 dB      6:11 02-Synapse II
DR11      -0.31 dB   -14.04 dB      7:58 03-Willow Song
DR11      -0.31 dB   -13.06 dB      7:01 04-Shave
DR17      -2.44 dB   -24.02 dB      6:39 05-Rosmarie
DR13      -2.82 dB   -18.98 dB      5:10 06-Suite for Trayvon (And Thousands More): I. Slimm
DR12      -0.31 dB   -14.71 dB      7:34 07-Suite for Trayvon (And Thousands More): II. Fallacies
DR12      -7.12 dB   -22.57 dB      4:19 08-Suite for Trayvon (And Thousands More): III. Adagio
DR11      -0.29 dB   -14.16 dB      4:10 09-Wiring
DR13      -0.32 dB   -15.34 dB      7:41 10-Chiara
DR12      -0.30 dB   -14.39 dB      6:25 11-Tribute to Bu
--------------------------------------------------------------------------------

Number of tracks:  11
Official DR value: DR12

Samplerate:        88200 Hz
Channels:          2
Bits per sample:   24
Bitrate:           2556 kbps
Codec:             FLAC
================================================================================
No seeders - write personal message to M0p94ok. Any questions - support@pro-jazz.com.
Нет сидеров - пишите в личку M0p94ok. Есть вопросы - support@pro-jazz.com
03:45
174
Нет комментариев. Ваш будет первым!