Вы используете незарегистрированную версию компонента "Вкладки"!

Поиск

2020 Norman Brown - Heart To Heart {Shanachie} [24-44,1]

2020 Norman Brown - Heart To Heart {Shanachie} [24-44,1]
Издатель (лейбл):
Битрейт аудио:
lossless
Доп. инфо:

Формат записи/Источник записи: [TR24][OF]
Наличие водяных знаков: Нет
Год издания: 2020
Продолжительность: 00:48:56
Наличие сканов в содержимом раздачи: Буклет PDF
Контейнер: FLAC (*.flac)
Тип рипа: tracks
Разрядность: 24/44.1
Формат: PCM
Количество каналов: 2.0
Источник (релизер): qobuz.com

Лог проверки качества
foobar2000 1.4.8 / Dynamic Range Meter 1.1.1
log date: 2020-08-07 17:52:11

--------------------------------------------------------------------------------
Analyzed: Norman Brown / Heart To Heart
--------------------------------------------------------------------------------

DR         Peak         RMS     Duration Track
--------------------------------------------------------------------------------
DR7       -0.60 dB    -8.75 dB      3:22 01-Heading Wes
DR9       -0.60 dB   -11.37 dB      4:11 02-Heart To Heart
DR9       -0.60 dB   -11.05 dB      3:44 03-Unconditional
DR8       -0.60 dB   -11.19 dB      3:35 04-Amen
DR8       -0.60 dB   -10.28 dB      4:26 05-Just Groovin'
DR9       -0.60 dB   -11.32 dB      4:23 06-Brighter My Light Shines
DR8       -0.60 dB    -9.74 dB      5:17 07-She's Mine
DR9       -0.60 dB   -10.43 dB      3:37 08-I Miss Your Groove
DR9       -0.60 dB   -10.58 dB      4:13 09-Ocean Breeze
DR9       -0.60 dB   -10.72 dB      3:45 10-Keep The Faith
DR7       -0.60 dB    -9.70 dB      8:28 11-Outside The Norm
--------------------------------------------------------------------------------

Number of tracks:  11
Official DR value: DR8
Samplerate:        44100 Hz
Channels:          2
Bits per sample:   24
Bitrate:           1632 kbps
Codec:             FLAC
================================================================================
Any questions - support@pro-jazz.com. Есть вопросы - support@pro-jazz.com
17:37
225
Нет комментариев. Ваш будет первым!