Вы используете незарегистрированную версию компонента "Вкладки"!

Поиск

2016 Hamilton De Holanda - Samba de Chico {MPS 0211077MS1} [24-96]

2016 Hamilton De Holanda - Samba de Chico {MPS 0211077MS1} [24-96]
Носитель:
WEB
Формат:
PCM
Тип рипа:
tracks+.cue
Контейнер:
FLAC (*.flac)
Количество каналов:
2.0
Разрядность/ЧД:
24/96
Битрейт аудио:
lossless
Время звучания:
00:53:33
Наличие сканов:
web
Страна-производитель диска (релиза):
Germany
Релизёр (источник):
M0p94ok
Лог проверки качества
foobar2000 1.5.5 / Dynamic Range Meter 1.1.1
log date: 2020-09-17 16:51:28

--------------------------------------------------------------------------------
Analyzed: Hamilton De Holanda, Chico Buarque / Samba de Chico (1-2)
          Hamilton De Holanda, Silvia Pérez Cruz / Samba de Chico (3-4)
          Hamilton De Holanda / Samba de Chico (5-15)
--------------------------------------------------------------------------------

DR         Peak         RMS     Duration Track
--------------------------------------------------------------------------------
DR8       -0.20 dB    -9.97 dB      4:01 03-A Volta do Malandro
DR7       -0.12 dB    -8.25 dB      3:05 11-Vai Trabalhar Vagabundo
DR9       -0.34 dB   -12.19 dB      3:07 06-Atrás da Porta
DR7       -0.03 dB    -9.30 dB      4:18 09-O Meu Amor
DR8       -0.16 dB   -10.10 dB      3:32 01-Morena d'Angola
DR7        0.00 dB    -9.19 dB      4:22 02-Construção / Deus Lhe Pague
DR8       -0.13 dB   -10.15 dB      3:57 04-Samba de Chico
DR7       -0.10 dB    -9.88 dB      4:01 05-Piano Na Mangueira
DR8       -0.05 dB   -10.60 dB      2:44 07-A Rita
DR7       -0.09 dB    -8.72 dB      3:59 08-Roda Viva
DR9       -0.17 dB   -11.67 dB      5:13 10-Trocando Em Miúdos
DR8       -0.14 dB    -9.98 dB      2:22 12-Samba do Grande Amor
DR14      -0.30 dB   -18.46 dB      2:55 13-Samba e Amor
DR8       -0.15 dB   -11.87 dB      3:42 14-Quem Te Viu Quem Te Vê
DR7       -0.16 dB   -10.38 dB      2:20 15-A Banda
--------------------------------------------------------------------------------

Number of tracks:  15
Official DR value: DR8

Samplerate:        96000 Hz
Channels:          2
Bits per sample:   24
Bitrate:           2785 kbps
Codec:             FLAC
================================================================================

Any questions - support@pro-jazz.com. Есть вопросы - support@pro-jazz.com
16:59
216
Нет комментариев. Ваш будет первым!