Вы используете незарегистрированную версию компонента "Вкладки"!

Поиск

2012 Hiromi − The Trio Project - Move {Telarc} [DSD64]

2012 Hiromi − The Trio Project - Move {Telarc} [DSD64]
Стили:
Издатель (лейбл):
Номер по каталогу:
UCGT-9001
Битрейт аудио:
lossless
Доп. инфо:

Формат записи/Источник записи: [SACD-R][OF]
Наличие водяных знаков: Нет
Год издания/переиздания диска: 2012
Жанр: Jazz, Fusion
Издатель (лейбл): Telarc
Номер по каталогу: UCGT-9001
Продолжительность: 01:09:17
Наличие сканов в содержимом раздачи: Да (сканы)
Источник (релизер): CDJapan

Контейнер: ISO (*.iso)
Тип рипа: image
Разрядность: 64(2,8 MHz/1 Bit)
Формат: DSD
Количество каналов: 2.0

Лог проверки качества
foobar2000 1.3.15 / Dynamic Range Meter 1.1.1
log date: 2020-08-03 19:41:04

--------------------------------------------------------------------------------
Analyzed: HIROMI - THE TRIO PROJECT / MOVE
--------------------------------------------------------------------------------

DR         Peak         RMS     Duration Track
--------------------------------------------------------------------------------
DR12      -5.86 dB   -20.57 dB      8:32 01-MOVE
DR11      -6.12 dB   -21.51 dB      7:01 02-BRAND NEW DAY
DR12      -5.57 dB   -20.09 dB      7:23 03-ENDEAVOR
DR12      -5.48 dB   -20.40 dB      7:27 04-RAINMAKER
DR13      -6.14 dB   -21.33 dB      5:32 05-SUITE ESCAPISM - REALITY
DR15      -8.06 dB   -26.39 dB      6:37 06-SUITE ESCAPISM - FANTASY
DR12      -5.95 dB   -20.53 dB      7:51 07-SUITE ESCAPISM - IN BETWEEN
DR12      -6.02 dB   -21.22 dB      7:28 08-MARGARITA!
DR13      -5.95 dB   -22.90 dB     11:27 09-11:49PM
--------------------------------------------------------------------------------

Number of tracks:  9
Official DR value: DR13

Samplerate:        2822400 Hz / PCM Samplerate: 176400 Hz
Channels:          2
Bits per sample:   1
Bitrate:           5645 kbps
Codec:             DSD64
================================================================================
Any questions - support@pro-jazz.com. Есть вопросы - support@pro-jazz.com
18:56
267
Нет комментариев. Ваш будет первым!