Вы используете незарегистрированную версию компонента "Вкладки"!

Поиск

1959 Freddie Redd Quartet ft. Jackie McLean - The Connection (2019) {RevOla} [24-44,1]

1959 Freddie Redd Quartet ft. Jackie McLean - The Connection (2019) {RevOla} [24-44,1]
Издатель (лейбл):
Битрейт аудио:
lossless
Доп. инфо:

Формат записи/Источник записи: [TR24][OF]
Издание: Remastered
Год издания/переиздания диска: 1959/2019
Издатель (лейбл): RevOla
Продолжительность: 00:38:30
Наличие сканов в содержимом раздачи: Нет

Контейнер: FLAC (*.flac)
Тип рипа: tracks
Разрядность: 24/44,1
Количество каналов: 2.0

Источник (релизер): Qobuz

Лог проверки качества
foobar2000 1.4.3 / Dynamic Range Meter 1.1.1
log date: 2020-07-18 17:51:34

--------------------------------------------------------------------------------
Analyzed: Freddie Redd Quartet / The Connection (OST)
--------------------------------------------------------------------------------

DR         Peak         RMS     Duration Track
--------------------------------------------------------------------------------
DR10      -0.17 dB   -11.22 dB      5:20 01, 01-Who Killed Cock Robin? (Remastered)
DR10      -0.05 dB   -12.37 dB      5:57 02, 02-Wigglin' (Remastered)
DR10      -0.04 dB   -11.54 dB      5:52 03, 03-Music Forever (Remastered)
DR10      -0.18 dB   -12.02 dB      6:23 04, 04-Time To Smile (Remastered)
DR10      -0.17 dB   -12.09 dB      4:44 05, 05-Theme For Sister Salvation (Remastered)
DR9       -0.17 dB   -10.73 dB      5:37 06, 06-Jim Dunn's Dilemma (Remastered)
DR10      -0.17 dB   -11.45 dB      4:42 07, 07-O.D. (Remastered)
--------------------------------------------------------------------------------

Number of tracks:  7
Official DR value: DR10

Samplerate:        44100 Hz
Channels:          2
Bits per sample:   24
Bitrate:           1456 kbps
Codec:             FLAC
================================================================================
Any questions - support@pro-jazz.com. Есть вопросы - support@pro-jazz.com
19:59
267
Нет комментариев. Ваш будет первым!