Вы используете незарегистрированную версию компонента "Вкладки"!

Поиск

2020 Masaa - Irade {Traumton} [24-44,1]

2020 Masaa - Irade {Traumton} [24-44,1]
Стили:
Доп. инфо:

• Формат записи | Источник записи: [TR24][OF]
• Наличие водяных знаков: Нет
• Год издания релиза: 2020
• Лейбл: Traumton
• Продолжительность: 00:46:19
• Источник: internet
• WEB релиз: ссылка
• Контейнер: FLAC (*.flac)
• Тип рипа: tracks
• Разрядность: 24/44,1
• Формат: PCM
• Количество каналов: 2.0
• Наличие сканов: front

Лог проверки качества
foobar2000 1.3.9 / Замер динамического диапазона (DR) 1.1.1
Дата отчёта:  2020-02-14 08:03:17

--------------------------------------------------------------------------------
Анализ:   Masaa / Irade
--------------------------------------------------------------------------------

DR         Пики         RMS           Продолжительность трека
--------------------------------------------------------------------------------
DR9       -0.77 дБ   -13.68 дБ      3:38 01-Hakim
DR9       -0.88 дБ   -11.68 дБ      2:53 02-Fadai
DR9       -0.84 дБ   -12.61 дБ      2:59 03-Farascha
DR12      -1.17 дБ   -16.01 дБ      4:30 04-Hala
DR8       -0.84 дБ   -12.29 дБ      4:37 05-Dafa
DR9       -1.00 дБ   -12.98 дБ      4:18 06-Lullaby for Jasu
DR9       -0.84 дБ   -13.81 дБ      5:00 07-Herzlicht
DR7       -0.72 дБ   -13.37 дБ      4:01 08-Ruhakayar
DR8       -0.69 дБ   -13.51 дБ      4:18 09-Sara
DR8       -0.84 дБ   -12.87 дБ      3:23 10-Averoes
DR11      -1.18 дБ   -15.14 дБ      3:45 11-Irade
DR10      -0.99 дБ   -14.61 дБ      2:59 12-La rue
--------------------------------------------------------------------------------

Количество треков: 12
Реальные значения DR: DR9

Частота:   44100 Гц
Каналов:   2
Разрядность:   24
Битрейт:   1443 кбит/с
Кодек:   FLAC
================================================================================
Any questions - support@pro-jazz.com. Есть вопросы - support@pro-jazz.com
11:54
278
Нет комментариев. Ваш будет первым!