Вы используете незарегистрированную версию компонента "Вкладки"!

Поиск

2018 Joe Kennedy Orchestra - Improvisation with 007 {4 Rivers Sound} [24-44,1]

2018 Joe Kennedy Orchestra - Improvisation with 007 {4 Rivers Sound} [24-44,1]
Стили:
Носитель:
WEB
Формат:
PCM
Тип рипа:
tracks+.cue
Контейнер:
FLAC (*.flac)
Количество каналов:
2.0
Разрядность/ЧД:
24/44,1
Время звучания:
00:32:19
Наличие сканов:
web
Релизёр (источник):
M0p94ok
Лог проверки качества
foobar2000 1.3.16 / Dynamic Range Meter 1.1.1
log date: 2018-12-31 03:59:36

--------------------------------------------------------------------------------
Analyzed: Joe Kennedy Orchestra / Improvisation with 007
--------------------------------------------------------------------------------

DR         Peak         RMS     Duration Track
--------------------------------------------------------------------------------
DR8       -0.09 dB    -9.81 dB      2:43 01-Theme from Doctor No
DR8       -0.10 dB   -11.26 dB      3:34 02-From Russia with Love
DR7       -0.10 dB    -9.43 dB      2:13 03-Mr Kiss Kiss Bang Bang
DR9       -0.10 dB   -11.06 dB      2:47 04-Goldfinger
DR10      -0.10 dB   -12.92 dB      2:54 05-Diamonds Are Forever
DR8       -0.10 dB   -10.64 dB      2:51 06-Mango Tree
DR7       -0.10 dB    -9.51 dB      2:26 07-The Man with the Golden Gun
DR9       -0.10 dB   -11.54 dB      2:36 08-Thunderball
DR10      -1.58 dB   -15.05 dB      2:25 09-You Only Live Twice
DR10      -0.10 dB   -14.34 dB      2:31 10-Do You Know How Chrismas Trees Grow
DR8       -0.10 dB   -11.36 dB      2:46 11-Live and Let Die
DR7       -0.10 dB    -9.29 dB      2:37 12-James Bond Theme
--------------------------------------------------------------------------------

Number of tracks:  12
Official DR value: DR9

Samplerate:        44100 Hz
Channels:          2
Bits per sample:   24
Bitrate:           1530 kbps
Codec:             FLAC
================================================================================
Any questions - support@pro-jazz.com. Есть вопросы - support@pro-jazz.com
00:22
274
Нет комментариев. Ваш будет первым!