Вы используете незарегистрированную версию компонента "Вкладки"!

Поиск

2015 Magnus Bakken Quartet - Cycles (2018) {AMP Music} [24-96]

2015 Magnus Bakken Quartet - Cycles (2018) {AMP Music} [24-96]
Дата записи диска:
20-21 июня 2015
Место записи:
Propeller Music Division, Oslo, Norway
Носитель:
WEB
Формат:
PCM
Тип рипа:
tracks+.cue
Контейнер:
FLAC (*.flac)
Количество каналов:
2.0
Разрядность/ЧД:
24/96
Время звучания:
00:59:53
Наличие сканов:
web
Страна-производитель диска (релиза):
Norway
Релизёр (источник):
M0p94ok
Лог проверки качества
foobar2000 1.3.7 / Dynamic Range Meter 1.1.1
log date: 2018-12-24 13:08:43

––––––––––––––––––––––––––––––––––––––––
Analyzed: Magnus Bakken Quartet / Cycles
––––––––––––––––––––––––––––––––––––––––

DR Peak RMS Duration Track
––––––––––––––––––––––––––––––––––––––––
DR11 -0.10 dB -14.60 dB 10:36 01-Cycles
DR12 -0.73 dB -17.40 dB 5:30 02-Straight Forward
DR11 -0.10 dB -13.28 dB 8:46 03-Opposing Forces
DR12 -0.10 dB -15.10 dB 7:04 04-Titanomachy
DR13 -0.10 dB -16.19 dB 12:02 05-The Composer
DR12 -0.10 dB -15.44 dB 10:30 06-Through the Snow
DR13 -0.10 dB -16.55 dB 5:29 07-The Charles
––––––––––––––––––––––––––––––––––––––––

Number of tracks: 7
Official DR value: DR12

Samplerate: 96000 Hz
Channels: 2
Bits per sample: 24
Bitrate: 2842 kbps
Codec: FLAC
================================================================================
Any questions - support@pro-jazz.com. Есть вопросы - support@pro-jazz.com
12:11
231
Нет комментариев. Ваш будет первым!