Вы используете незарегистрированную версию компонента "Вкладки"!

Поиск

2020 Mark Wingfield with Jane Chapman and Adriano Adewale - Zoji {MoonJune} [24-88.2]

2020 Mark Wingfield with Jane Chapman and Adriano Adewale - Zoji {MoonJune} [24-88.2]
Стили:
Место записи:
Heron Island Studios и Drayton Garden Studio, England, UK
Дата издания диска:
1 января 2021
Битрейт аудио:
lossless
Доп. инфо:

Формат записи/Источник записи: [TR24][OF]
Наличие водяных знаков: Нет
Год издания/переиздания диска: 2020
Продолжительность: 64:51 min
Наличие сканов в содержимом раздачи: нет

Контейнер: FLAC (*.flac)
Тип рипа: tracks
Разрядность: 24/88,2
Формат: РСМ
Количество каналов: 2.0

Источник (релизер): bandcamp.com

 

Лог проверки качества
foobar2000 1.4.2 / Замер динамического диапазона (DR) 1.1.1
Дата отчёта:  2021-01-02 22:33:56

--------------------------------------------------------------------------------
Анализ:   Mark Wingfield with Jane Chapman and Adriano Adewale / Zoji
--------------------------------------------------------------------------------

DR         Пики         RMS           Продолжительность трека
--------------------------------------------------------------------------------
DR11      -1.01 дБ   -14.52 дБ      5:12 01-City Story
DR13      -1.01 дБ   -17.58 дБ      6:37 02-Seven Faces Of Silence
DR14      -1.01 дБ   -17.54 дБ      8:18 03-Persian Snow Leopard
DR11      -1.01 дБ   -14.91 дБ      8:43 04-Parallel Time
DR11      -1.01 дБ   -14.24 дБ      6:40 05-Land On Sky
DR12      -1.01 дБ   -15.76 дБ      3:18 06-Sun Court
DR9       -1.01 дБ   -14.03 дБ      7:23 07-Wind Falls Cliffs Rise
DR15      -1.01 дБ   -19.32 дБ      2:21 08-Pasquali Dream
DR10      -1.01 дБ   -15.56 дБ      6:08 09-Zoji Pass
DR9       -2.30 дБ   -13.93 дБ      4:22 10-Prélude Sinueux
DR16      -1.01 дБ   -20.20 дБ      5:49 11-Viaduct Road
--------------------------------------------------------------------------------

Количество треков: 11
Реальные значения DR: DR12

Частота:   88200 Гц
Каналов:   2
Разрядность:   24
Битрейт:   2520 кбит/с
Кодек:   FLAC
================================================================================
Any questions - support@pro-jazz.com. Есть вопросы - support@pro-jazz.com
01:38
164
Нет комментариев. Ваш будет первым!