Поиск

1978 Esther Phillips - At Onkel Po's Carnegie Hall, Hamburg (2020) {Delta Music} [24-44.1]

1978 Esther Phillips - At Onkel Po's Carnegie Hall, Hamburg (2020) {Delta Music} [24-44.1]
Стили:
Битрейт аудио:
lossless
Треклист:

01 - I've Never Found a Man 05:41
02 - Man Ain't Ready 03:51
03 - The Blues 18:24
04 - Native New Yorker 12:29
05 - One Night Affair 04:51
06 - Stormy Weather 08:43
07 - Ms 06:13
08 - Cherry Red 12:15
09 - What a Difference a Day Makes 12:58

Доп. инфо:

Формат записи/Источник записи: [TR24][OF]
Издание: Remastered
Год издания/переиздания диска: 1978/2020
Издатель (лейбл): Delta Music
Продолжительность: 01:25:25
Наличие сканов в содержимом раздачи: Нет

Контейнер: FLAC (*.flac)
Тип рипа: tracks
Разрядность: 24/44,1
Количество каналов: 2.0

Источник (релизер): HIGHRESAUDIO

Лог проверки качества
foobar2000 1.3.7 / Dynamic Range Meter 1.1.1
log date: 2020-01-29 23:03:16

--------------------------------------------------------------------------------
Analyzed: Esther Phillips / At Onkel Pö´s Carnegie Hall, Hamburg 1978 (Remastered)
--------------------------------------------------------------------------------

DR         Peak         RMS     Duration Track
--------------------------------------------------------------------------------
DR8       -0.31 dB   -11.69 dB      5:42 01-I've Never Found a Man
DR10      -0.36 dB   -12.61 dB      3:52 02-Man Ain't Ready
DR10      -0.33 dB   -14.46 dB     18:24 03-The Blues
DR10      -0.32 dB   -12.12 dB     12:30 04-Native New Yorker
DR10      -0.35 dB   -11.80 dB      4:51 05-One Night Affair
DR11      -0.36 dB   -16.03 dB      8:43 06-Stormy Weather
DR9       -0.36 dB   -11.56 dB      6:13 07-Ms
DR9       -0.31 dB   -12.38 dB     12:15 08-Cherry Red
DR9       -0.35 dB   -11.24 dB     12:58 09-What a Difference a Day Makes
--------------------------------------------------------------------------------

Number of tracks:  9
Official DR value: DR10

Samplerate:        44100 Hz
Channels:          2
Bits per sample:   24
Bitrate:           1651 kbps
Codec:             FLAC
================================================================================
Приватный:
Нет (DHT включён)
Размер:
960.15 Мб (1,006,788,458 байт) » файлов: 14
Участники:
0 раздают, 0 качают (0 участников всего)
Внешние участники:
5 раздают, 2 качают (7 участников всего) [ Обновить ]
No seeders - write personal message to M0p94ok. Нет сидеров - пишите в личку M0p94ok.
17:00
100
Нет комментариев. Ваш будет первым!