Поиск

2019 Alfa Mist - Structuralism {Sekito} [24-44.1]

2019 Alfa Mist - Structuralism {Sekito} [24-44.1]
Дата издания диска:
26 апреля 2019
Номер по каталогу:
SEKITO002
Носитель:
WEB
Формат:
PCM
Тип рипа:
tracks
Контейнер:
FLAC (*.flac)
Количество каналов:
2.0
Разрядность/ЧД:
24/44,1
Битрейт аудио:
lossless
Время звучания:
00:50:16
Наличие сканов:
только обложка
Наличие водяных знаков:
нет
Страна-производитель диска (релиза):
Japan
Релизёр (источник):
M0p94ok

Треклист:

1.    .44    9:59
2.    Falling (feat. Vocals – Kaya Thomas-Dyke)    4:12
3.    Mulago    4:07
4.    Glad I Lived    6:01
5.    Jjajja's Screen    5:26
6.    Naiyti    9:28
7.    Retainer    6:58
8.    Door (feat. Vocals – Jordan Rakei)    4:08

Лог проверки качества
foobar2000 1.3.16 / Dynamic Range Meter 1.1.1
log date: 2019-04-26 11:38:19

--------------------------------------------------------------------------------
Analyzed: Alfa Mist / Structuralism
--------------------------------------------------------------------------------

DR         Peak         RMS     Duration Track
--------------------------------------------------------------------------------
DR11      -0.21 dB   -13.23 dB      9:59 01-.44
DR9       -0.21 dB   -12.08 dB      4:12 02-Falling (feat. Kaya Thomas-Dyke)
DR9       -0.21 dB   -12.13 dB      4:07 03-Mulago
DR7       -0.21 dB    -9.73 dB      6:01 04-Glad I Lived
DR8       -0.20 dB    -9.26 dB      5:26 05-Jjajja's Screen
DR9       -0.21 dB   -11.70 dB      9:28 06-Naiyti
DR8       -0.21 dB   -10.66 dB      6:58 07-Retainer
DR8       -0.21 dB   -10.38 dB      4:08 08-Door (feat. Jordan Rakei)
--------------------------------------------------------------------------------

Number of tracks:  8
Official DR value: DR9

Samplerate:        44100 Hz
Channels:          2
Bits per sample:   24
Bitrate:           1497 kbps
Codec:             FLAC
================================================================================
Приватный:
Нет (DHT включён)
Размер:
524.01 Мб (549,467,939 байт) » файлов: 10
Участники:
5 раздают, 0 качают (5 участников всего)
Внешние участники:
--- [ Обновить ]
No seeders - write personal message to M0p94ok. Нет сидеров - пишите в личку M0p94ok.
21:13
123
Нет комментариев. Ваш будет первым!