Поиск

1991 Nicolas Montier and Saxomania - Lullaby (2015) {Venus VHGD-83} [DSD64]

1991 Nicolas Montier and Saxomania - Lullaby (2015) {Venus VHGD-83} [DSD64]
Стили:
Издатель (лейбл):
Номер по каталогу:
VHGD-83
Битрейт аудио:
lossless

Треклист:

01. Lullaby of the Leaves  04:08
02. Lullaby in Blue  04:07
03. Paris Lullaby  04:04
04. Biscottes  04:42
05. Hush-A-Bye  04:36
06. Tokyo Lullaby  04:53
07. Summertime  03:40
08. Blue Star  03:58
09. Lullaby of Birdland  04:28
10. Early Autumn  05:14
11. Saxomania in Blue  04:34
12. Laura  05:37
13. Porto Moniz  03:39

Доп. инфо:

Николя Монтье, возможно, не очень известен в США, но он мастерский тенор-саксофонист, живущий во Франции. Джазовая академия Парижа присудила ему премию Сидни Беше в 1984 и 1985 годах. На этом альбоме представлены Монтье и его квартет, а также ансамбль с четырьмя саксофонами под названием Saxomania. Как видно из названия, в альбоме много колыбельных, но некоторые играются в среднем темпе. Укоренившись в мейнстримных джазовых традициях, группа очень хорошо играет. Аранжировки пяти саксофонов неизменно великолепны, а игра Монтье вдохновляет и впечатляет.

Формат записи/Источник записи: [SACD-R][OF]
Наличие водяных знаков: Нет
Год издания/переиздания диска: 1991/2015
Продолжительность: 00:57:27
Наличие сканов в содержимом раздачи: Только обложка альбома

Контейнер: ISO (*.iso)
Тип рипа: image
Разрядность: 64 (2,8 MHz/1 Bit)
Формат: DSD
Количество каналов: 2.0

Доп. информация: venusrecords
Источник (релизер): jazzy pic

 

Лог проверки качества
foobar2000 1.6.2 / Замер динамического диапазона (DR) 1.1.1
Дата отчёта:  2021-01-02 16:42:06

--------------------------------------------------------------------------------
Анализ:   Nicolas Montier And Saxomania / LULLABY
--------------------------------------------------------------------------------

DR         Пики         RMS           Продолжительность трека
--------------------------------------------------------------------------------
DR11      -1.88 дБ   -14.34 дБ      4:07 01-Lullaby Of The Leaves
DR11      -2.68 дБ   -15.12 дБ      4:06 02-Lullaby In Blue
DR11      -3.01 дБ   -15.39 дБ      4:03 03-Paris Lullaby
DR11      -2.04 дБ   -15.70 дБ      4:40 04-Biscottes
DR11      -3.30 дБ   -16.69 дБ      4:35 05-Hush-A-Bye
DR11      -3.19 дБ   -17.26 дБ      4:52 06-Tokyo Lullaby
DR11      -1.28 дБ   -15.94 дБ      3:39 07-Summertime
DR10      -3.37 дБ   -16.01 дБ      3:57 08-Blue Star
DR11      -3.05 дБ   -15.85 дБ      4:27 09-Lullaby Of Birdland
DR11      -3.72 дБ   -16.56 дБ      5:13 10-Early Autumn
DR11      -2.13 дБ   -15.20 дБ      4:33 11-Saxomania In Blue
DR11      -2.58 дБ   -16.30 дБ      5:36 12-Laura
DR11      -2.71 дБ   -16.36 дБ      3:39 13-Porto Moniz
--------------------------------------------------------------------------------

Количество треков: 13
Реальные значения DR: DR11

Частота:  2822400 Гц / Частота PCM: 352800 Гц
Каналов:  2
Разрядность:   1
Битрейт:  5645 кбит/с
Кодек:   DSD64
================================================================================
Приватный:
Нет (DHT включён)
Размер:
2.33 Гб (2,497,654,439 байт) » файлов: 4
Участники:
0 раздают, 0 качают (0 участников всего)
Внешние участники:
9 раздают, 3 качают (12 участников всего) [ Обновить ]
No seeders - write personal message to M0p94ok. Нет сидеров - пишите в личку M0p94ok.
00:48
114
Нет комментариев. Ваш будет первым!