Поиск

2003 Dave Hagedorn - SolidLiquid {Artegra} [DST64]

2003 Dave Hagedorn - SolidLiquid {Artegra} [DST64]
Дата записи диска:
20 августа - 22 августа 2002
Место записи:
Sundin Hall, Hamline University
Битрейт аудио:
lossless
Доп. инфо:

Формат записи/Источник записи: [SACD-R][OF]
Наличие водяных знаков: Нет
Год издания/переиздания диска: 2003
Издатель (лейбл): Artegra, LLC
Продолжительность: 60:35
Наличие сканов в содержимом раздачи: Только обложка альбома
Источник (релизер): SA-CD.net
Контейнер: ISO (*.iso)
Тип рипа: image
Разрядность: 64(2,8 MHz/1 Bit)
Формат: DST64
Количество каналов: 5.0, 2.0

Лог проверки качества
foobar2000 1.5.4 / Dynamic Range Meter 1.1.1
log date: 2020-11-08 09:54:29

--------------------------------------------------------------------------------
Analyzed: Dave Hagedorn / SolidLiquid
--------------------------------------------------------------------------------

DR         Peak         RMS     Duration Track
--------------------------------------------------------------------------------
DR15      -4.44 dB   -27.65 dB      5:18 01-Pentandria
DR14      -8.09 dB   -29.66 dB      4:01 02-Ugly Beauty
DR14      -5.47 dB   -26.45 dB      5:11 03-COD
DR17      -3.98 dB   -29.01 dB      6:07 04-Boogie Stop Shuffle
DR13      -7.87 dB   -28.71 dB      2:57 05-For Jan
DR15      -1.07 dB   -27.24 dB      4:20 06-Blue Twelve
DR14       0.00 dB   -25.29 dB      6:22 07-Consolation
DR14      -5.03 dB   -25.48 dB      5:12 08-Inner Urge
DR13      -6.37 dB   -27.91 dB      4:10 09-Touch Her Soft Lips And Part
DR17      -2.03 dB   -31.35 dB      4:09 10-Matrix
DR15      -7.74 dB   -29.18 dB      7:09 11-SolidLiquid
DR14      -4.46 dB   -25.33 dB      5:11 12-Miss Nancy
--------------------------------------------------------------------------------

Number of tracks:  12
Official DR value: DR15

Samplerate:        2822400 Hz / PCM Samplerate: 176400 Hz
Channels:          5
Bits per sample:   1
Bitrate:           14112 kbps
Codec:             DST64
================================================================================

--------------------------------------------------------------------------------
Analyzed: Dave Hagedorn / SolidLiquid
--------------------------------------------------------------------------------

DR         Peak         RMS     Duration Track
--------------------------------------------------------------------------------
DR15      -3.57 dB   -24.53 dB      5:18 01-Pentandria
DR14      -4.65 dB   -24.10 dB      4:01 02-Ugly Beauty
DR14      -3.79 dB   -22.35 dB      5:11 03-COD
DR17      -3.09 dB   -23.93 dB      6:07 04-Boogie Stop Shuffle
DR13      -6.69 dB   -23.46 dB      2:57 05-For Jan
DR14      -4.71 dB   -23.89 dB      4:20 06-Blue Twelve
DR14       0.00 dB   -22.13 dB      6:22 07-Consolation
DR13       0.00 dB   -21.57 dB      5:12 08-Inner Urge
DR13      -6.24 dB   -25.36 dB      4:10 09-Touch Her Soft Lips And Part
DR19      -1.71 dB   -27.32 dB      4:09 10-Matrix
DR15      -5.51 dB   -24.80 dB      7:09 11-SolidLiquid
DR14      -4.23 dB   -23.10 dB      5:11 12-Miss Nancy
--------------------------------------------------------------------------------

Number of tracks:  12
Official DR value: DR15

Samplerate:        2822400 Hz / PCM Samplerate: 176400 Hz
Channels:          2
Bits per sample:   1
Bitrate:           5645 kbps
Codec:             DST64
================================================================================
No seeders - write personal message to M0p94ok. Any questions - support@pro-jazz.com.
Нет сидеров - пишите в личку M0p94ok. Есть вопросы - support@pro-jazz.com
14:28
130
Нет комментариев. Ваш будет первым!