Вы используете незарегистрированную версию компонента "Вкладки"!

Поиск

2020 Manuel Hermia, Sam Gerstmans, Pascal Mohy - The Love Songs (Back to the Heart of jazz) {Jazz Avatars} [24-44,1]

2020 Manuel Hermia, Sam Gerstmans, Pascal Mohy - The Love Songs (Back to the Heart of jazz) {Jazz Avatars} [24-44,1]
Стили:
Битрейт аудио:
lossless
Доп. инфо:

• Формат записи | Источник записи: [TR24][OF]
• Наличие водяных знаков: Нет
• Год издания релиза: 2020
• Лейбл: Jazz Avatars
• Продолжительность: 01:04:37
• Источник: internet
• WEB релиз: ссылка
• Контейнер: FLAC (*.flac)
• Тип рипа: tracks
• Разрядность: 24/44,1
• Формат: PCM
• Количество каналов: 2.0
• Наличие сканов: front

Лог проверки качества
foobar2000 1.4.2 / Замер динамического диапазона (DR) 1.1.1
Дата отчёта:  2020-03-24 13:14:35

--------------------------------------------------------------------------------
Анализ:   Manuel Hermia, Sam Gerstmans, Pascal Mohy / The Love Songs (Back to the Heart of jazz)
--------------------------------------------------------------------------------

DR         Пики         RMS           Продолжительность трека
--------------------------------------------------------------------------------
DR10      -0.50 дБ   -13.83 дБ      9:26 01-Soul Eyes
DR11      -1.11 дБ   -14.05 дБ      5:58 02-Like Someone in Love
DR13      -0.22 дБ   -15.83 дБ     10:31 03-The Nearness of You
DR11      -1.21 дБ   -15.55 дБ      7:14 04-I Fall In Love so Easily
DR13      -0.10 дБ   -15.39 дБ      8:46 05-You Don't Know What Love Is
DR14      -0.22 дБ   -17.43 дБ      7:27 06-Stella by Starlight
DR16      -0.10 дБ   -19.00 дБ      7:30 07-I Aime You
DR14      -0.21 дБ   -17.50 дБ      7:45 08-A Kiss to Build a Dream On
--------------------------------------------------------------------------------

Количество треков: 8
Реальные значения DR: DR13

Частота:   44100 Гц
Каналов:   2
Разрядность:   24
Битрейт:   1358 кбит/с
Кодек:   FLAC
================================================================================
Any questions - support@pro-jazz.com. Есть вопросы - support@pro-jazz.com
00:08
281
Нет комментариев. Ваш будет первым!