Вы используете незарегистрированную версию компонента "Вкладки"!

Поиск

2020 Marquis Hill - Love Tape: With Voices {Black Unlimited Music Group} [24-44,1]

2020 Marquis Hill - Love Tape: With Voices {Black Unlimited Music Group} [24-44,1]
Стили:
Битрейт аудио:
lossless
Доп. инфо:

• Формат записи | Источник записи: [TR24][OF]
• Наличие водяных знаков: Нет
• Год издания релиза: 2019-2020
• Лейбл: Black Unlimited Music Group
• Продолжительность: 00:28:48
• Источник: internet
• WEB релиз: ссылка
• Контейнер: FLAC (*.flac)
• Тип рипа: tracks
• Разрядность: 24/44,1
• Формат: PCM
• Количество каналов: 2.0
• Наличие сканов: front

Лог проверки качества
foobar2000 1.4.2 / Замер динамического диапазона (DR) 1.1.1
Дата отчёта:  2020-03-24 14:51:13

--------------------------------------------------------------------------------
Анализ:   Marquis Hill / Love Tape: With Voices
--------------------------------------------------------------------------------

DR         Пики         RMS           Продолжительность трека
--------------------------------------------------------------------------------
DR10      -1.02 дБ   -13.10 дБ      3:07 01-They Say This is Love
DR9       -1.02 дБ   -11.29 дБ      2:48 02-Skyfall
DR9       -1.02 дБ   -11.68 дБ      4:10 03-Just Forever
DR9       -4.36 дБ   -15.58 дБ      1:16 04-A Glimpse of You (Interlude)
DR8       -1.01 дБ   -10.98 дБ      4:40 05-Loving and Healing
DR11      -1.01 дБ   -13.69 дБ      3:17 06-Be Love
DR9       -5.99 дБ   -17.39 дБ      1:25 07-Recreation (Interlude)
DR10      -4.30 дБ   -17.52 дБ      0:53 08-Mantra 8 (The Writer is Me)
DR9       -1.01 дБ   -11.07 дБ      3:33 09-For You
DR9       -1.02 дБ   -11.76 дБ      3:40 10-Wednesday Love
--------------------------------------------------------------------------------

Количество треков: 10
Реальные значения DR: DR9

Частота:   44100 Гц
Каналов:   2
Разрядность:   24
Битрейт:   1538 кбит/с
Кодек:   FLAC
================================================================================
Any questions - support@pro-jazz.com. Есть вопросы - support@pro-jazz.com
00:19
353
Нет комментариев. Ваш будет первым!