Вы используете незарегистрированную версию компонента "Вкладки"!

Поиск

1958 Duke Ellington & His Orchestra - Ellington Indigos {Columbia} [24-192]

1958 Duke Ellington & His Orchestra - Ellington Indigos {Columbia} [24-192]
Стили:
Издатель (лейбл):
Битрейт аудио:
lossless
Доп. инфо:

Формат записи/Источник записи: [TR24][OF]
Издание: Remastered
Год издания/переиздания диска: 1958/2015
Продолжительность: 00:35:56
Наличие сканов в содержимом раздачи: Буклет PDF

Контейнер: FLAC (*.flac)
Тип рипа: tracks
Разрядность: 24/192
Количество каналов: 2.0

Источник (релизер): HDTT

Лог проверки качества
foobar2000 1.4.3 / Dynamic Range Meter 1.1.1
log date: 2020-03-25 07:52:01

--------------------------------------------------------------------------------
Analyzed: Duke Ellington & His Orchestra / Ellington Indigos
--------------------------------------------------------------------------------

DR         Peak         RMS     Duration Track
--------------------------------------------------------------------------------
DR12      -3.25 dB   -21.76 dB      4:50 01-Solitude
DR10      -4.91 dB   -18.22 dB      4:06 02-Where Or When
DR10      -5.03 dB   -20.31 dB      3:09 03-Mood Indigo
DR10      -6.90 dB   -21.78 dB      5:10 04-Autumn Leaves
DR10      -2.13 dB   -16.53 dB      4:47 05-Prelude To A Kiss
DR10      -1.78 dB   -16.26 dB      4:20 06-Willow Weep For Me
DR12      -1.13 dB   -18.50 dB      5:24 07-Tenderly
DR10      -1.39 dB   -15.18 dB      4:10 08-Dancing In The Dark
--------------------------------------------------------------------------------

Number of tracks:  8
Official DR value: DR11

Samplerate:        192000 Hz
Channels:          2
Bits per sample:   24
Bitrate:           5101 kbps
Codec:             FLAC
================================================================================
Any questions - support@pro-jazz.com. Есть вопросы - support@pro-jazz.com
23:43
248
Нет комментариев. Ваш будет первым!