Вы используете незарегистрированную версию компонента "Вкладки"!

Поиск

2020 Lee Konitz - All that Jazz, Vol. 125 - Bopping Sax – Lee Konitz & Friends in Studio and on Stage {Jube Legends} [24-48]

2020 Lee Konitz - All that Jazz, Vol. 125 - Bopping Sax – Lee Konitz & Friends in Studio and on Stage {Jube Legends} [24-48]
Носитель:
WEB
Формат:
PCM
Тип рипа:
tracks+.cue
Контейнер:
FLAC (*.flac)
Количество каналов:
2.0
Разрядность/ЧД:
24/48
Битрейт аудио:
lossless
Время звучания:
01:27:45
Наличие сканов:
web
Релизёр (источник):
M0p94ok
Лог проверки качества
foobar2000 1.4.3 / Dynamic Range Meter 1.1.1
log date: 2020-05-23 14:14:45

--------------------------------------------------------------------------------
Analyzed: Lee Konitz / All that Jazz, Vol. 125: Bopping Sax – Lee Konitz & Friends in Studio and on Stage
--------------------------------------------------------------------------------

DR         Peak         RMS     Duration Track
--------------------------------------------------------------------------------
DR12       0.00 dB   -14.75 dB      3:52 01-I Can't Get Started (From "Ziegfeld Follies of 1936")
DR15       0.00 dB   -18.32 dB      6:37 02-Confucius Blues (Live)
DR13       0.00 dB   -15.53 dB      5:23 03-Topsy
DR14       0.00 dB   -17.04 dB      8:05 04-April (Live)
DR13       0.00 dB   -15.83 dB      4:45 05-There Will Never Be Another You
DR14       0.00 dB   -17.56 dB      6:29 06-Donna Lee (Live)
DR14       0.00 dB   -16.01 dB      5:17 07-Star Eyes
DR14      -0.41 dB   -17.70 dB      7:44 08-Mean to Me (Live)
DR13       0.00 dB   -15.48 dB      6:07 09-Kary's Trance
DR14       0.00 dB   -16.78 dB      4:58 10-S'Wonderful (From "Funny Face") [Live]
DR14       0.00 dB   -15.69 dB      5:07 11-All of Me
DR15       0.00 dB   -18.79 dB      8:02 12-My Melancholy Baby (Live)
DR13       0.00 dB   -15.47 dB      4:05 13-Everything Happens to Me
DR13       0.00 dB   -15.69 dB      7:14 14-Don't Squawk
DR14       0.00 dB   -17.35 dB      4:10 15-Whispering (Live)
--------------------------------------------------------------------------------

Number of tracks:  15
Official DR value: DR14

Samplerate:        48000 Hz
Channels:          2
Bits per sample:   24
Bitrate:           850 kbps
Codec:             FLAC
================================================================================
Any questions - support@pro-jazz.com. Есть вопросы - support@pro-jazz.com
14:28
482
Нет комментариев. Ваш будет первым!