Поиск

1967 The Glenn Miller Orchestra - In the Mod (2017) {RCA, Legacy} [24-96]

1967 The Glenn Miller Orchestra - In the Mod (2017) {RCA, Legacy} [24-96]
Стили:
Издатель (лейбл):
Битрейт аудио:
lossless
Треклист:

01 - In the Mod (In the Mood) 02:57
02 - Shangri-La 02:35
03 - Song of India 02:32
04 - Chelsea Bridge 03:00
05 - Sherry! 02:32
06 - Charlie Cat 02:37
07 - Gone with the Wind 02:41
08 - Walking Happy 02:41
09 - My Ship 02:49
10 - The Continental 02:49
11 - Thanks for the Memory 03:42

Доп. инфо:

Формат записи/Источник записи: [TR24][OF]
Издание: Remastered
Год издания/переиздания диска: 1967/2017
Издатель (лейбл): RCA - Legacy
Продолжительность: 00:31:01
Наличие сканов в содержимом раздачи: Нет

Контейнер: FLAC (*.flac)
Тип рипа: tracks
Разрядность: 24/96
Количество каналов: 2.0

Источник (релизер): Qobuz

Лог проверки качества
foobar2000 1.4.3 / Dynamic Range Meter 1.1.1
log date: 2020-03-12 11:01:12

--------------------------------------------------------------------------------
Analyzed: Buddy Defranco / In the Mod (Remastered) (1)
          Glenn Miller & His Orchestra / In the Mod (Remastered) (2-11)
--------------------------------------------------------------------------------

DR         Peak         RMS     Duration Track
--------------------------------------------------------------------------------
DR9       -0.02 dB   -10.96 dB      2:38 06-Charlie Cat
DR9       -0.02 dB   -10.18 dB      3:01 01-In the Mod (In the Mood)
DR9       -0.02 dB   -12.32 dB      2:38 02-Shangri-La
DR9       -0.02 dB   -10.60 dB      2:33 03-Song of India
DR9       -0.02 dB   -12.02 dB      3:01 04-Chelsea Bridge
DR8       -0.02 dB   -10.39 dB      2:32 05-Sherry!
DR8       -0.02 dB   -11.07 dB      2:42 07-Gone with the Wind
DR9       -0.02 dB   -10.74 dB      2:42 08-Walking Happy
DR9       -0.02 dB   -12.02 dB      2:50 09-My Ship
DR9       -0.02 dB   -10.36 dB      2:49 10-The Continental
DR8       -0.01 dB    -9.85 dB      3:43 11-Thanks for the Memory
--------------------------------------------------------------------------------

Number of tracks:  11
Official DR value: DR9

Samplerate:        96000 Hz
Channels:          2
Bits per sample:   24
Bitrate:           3375 kbps
Codec:             FLAC
================================================================================
Приватный:
Нет (DHT включён)
Размер:
733.30 Мб (768,922,978 байт) » файлов: 15
Участники:
0 раздают, 0 качают (0 участников всего)
Внешние участники:
16 раздают, 5 качают (21 участников всего) [ Обновить ]
No seeders - write a personal message to user M0p94ok. Нет сидеров - пишите личное сообщение пользователю M0p94ok.
11:24
35
Нет комментариев. Ваш будет первым!