Вы используете незарегистрированную версию компонента "Вкладки"!

Поиск

2020 Jeremy Tordjman - The Land of Nowhere {TheRedBox} [24-48]

2020  Jeremy Tordjman - The Land of Nowhere {TheRedBox} [24-48]
Стили:
Битрейт аудио:
lossless
Доп. инфо:

Формат записи/Источник записи: [TR24][OF]
Наличие водяных знаков: Нет
Год издания: 2020
Издатель (лейбл): TheRedBox
Продолжительность: 01:11:41
Наличие сканов в содержимом раздачи: Только обложка
Источник: highresaudio
Контейнер: FLAC (*.flac)
Тип рипа: tracks
Разрядность: 24/48
Формат: PCM
Количество каналов: 2.0

Лог проверки качества
foobar2000 1.3.16 / Dynamic Range Meter 1.1.1
log date: 2020-09-17 06:52:54

––––––––––––––––––––––––––––––––––––––––
Analyzed: JEREMY TORDJMAN / The Land of Nowhere
––––––––––––––––––––––––––––––––––––––––

DR Peak RMS Duration Track
––––––––––––––––––––––––––––––––––––––––
DR12 0.00 dB -15.28 dB 3:18 01-The Land of Nowhere
DR12 -1.02 dB -16.87 dB 1:14 02-Intro / Free Spirit
DR13 -0.10 dB -16.87 dB 8:51 03-Free Spirit
DR13 -0.72 dB -17.57 dB 3:34 04-Hysteria
DR15 0.00 dB -17.81 dB 1:44 05-Tree of Life
DR15 -0.10 dB -18.08 dB 3:15 06-Summer Midnight Walk
DR14 -0.06 dB -17.83 dB 5:57 07-One Way to the Unknown
DR15 -0.82 dB -18.10 dB 2:36 08-Haku
DR14 0.00 dB -17.26 dB 5:11 09-Dead Man
DR10 -0.48 dB -14.49 dB 4:35 10-Lost Your Mind
DR11 -1.20 dB -16.48 dB 2:30 11-Beyond Mankind
DR13 -0.51 dB -18.05 dB 1:35 12-Mystic Tribe
DR13 -0.03 dB -15.89 dB 2:44 13-Diptych Dreamscape
DR8 -0.80 dB -14.92 dB 1:01 14-Strange New World
DR11 -0.20 dB -16.97 dB 1:06 15-After the Rain
DR16 -0.27 dB -19.79 dB 1:45 16-Sweet Lullaby (Ballad for Pang)
DR11 -0.41 dB -18.13 dB 2:10 17-Dinknesh
DR15 0.00 dB -19.14 dB 4:44 18-Elegant Decadence
DR13 -0.08 dB -15.94 dB 5:15 19-One Way to the Unknown (Trumpet Version)
DR12 0.00 dB -15.88 dB 3:19 20-Sound of Mars
DR14 0.00 dB -17.05 dB 5:26 21-Bunch of Garbage
––––––––––––––––––––––––––––––––––––––––

Number of tracks: 21
Official DR value: DR13

Samplerate: 48000 Hz
Channels: 2
Bits per sample: 24
Bitrate: 1439 kbps
Codec: FLAC
================================================================================
Any questions - support@pro-jazz.com. Есть вопросы - support@pro-jazz.com
22:22
230
Нет комментариев. Ваш будет первым!