Вы используете незарегистрированную версию компонента "Вкладки"!

Поиск

1962 Steve Lacy With Don Cherry - Evidence (2019 Remastered) {RevOla} [24-44,1]

1962 Steve Lacy With Don Cherry - Evidence (2019 Remastered) {RevOla} [24-44,1]
Стили:
Дата записи диска:
1 ноября 1961
Место записи:
Van Gelder Recording Studio, Englewood Cliffs, New Jersey
Издатель (лейбл):
Битрейт аудио:
lossless
Доп. инфо:

Формат записи/Источник записи: [TR24][OF]
Издание: Remastered
Год издания/переиздания диска: 1962/2019
Издатель (лейбл): RevOla
Продолжительность: 00:33:08
Наличие сканов в содержимом раздачи: Нет

Контейнер: FLAC (*.flac)
Тип рипа: tracks
Разрядность: 24/44,1
Количество каналов: 2.0

Источник (релизер): Qobuz

Лог проверки качества
foobar2000 1.4.3 / Dynamic Range Meter 1.1.1
log date: 2020-08-10 19:51:07

--------------------------------------------------------------------------------
Analyzed: Steve Lacy / Evidence
--------------------------------------------------------------------------------

DR         Peak         RMS     Duration Track
--------------------------------------------------------------------------------
DR11      -5.53 dB   -22.11 dB      5:45 01-The Mystery Song (Remastered)
DR12      -5.40 dB   -23.22 dB      4:59 02-Evidence (Remastered)
DR13      -3.86 dB   -22.31 dB      6:42 03-Let's Cool One (Remastered)
DR12      -4.53 dB   -22.29 dB      4:28 04-San Francisco Holiday (Remastered)
DR14      -4.46 dB   -22.26 dB      5:48 05-Something to Live For (Remastered)
DR12      -5.55 dB   -22.71 dB      5:26 06-Who Knows? (Remastered)
--------------------------------------------------------------------------------

Number of tracks:  6
Official DR value: DR13

Samplerate:        44100 Hz
Channels:          2
Bits per sample:   24
Bitrate:           1501 kbps
Codec:             FLAC
================================================================================
Any questions - support@pro-jazz.com. Есть вопросы - support@pro-jazz.com
10:24
217
Нет комментариев. Ваш будет первым!