Поиск

1963 Eydie Gorme - Blame It on the Bossa Nova (2019) {RevOla} [24-44,1]

1963 Eydie Gorme - Blame It on the Bossa Nova (2019) {RevOla} [24-44,1]
Стили:
Издатель (лейбл):
Битрейт аудио:
lossless

This album is available on our DC++ hub: dc.pro-jazz.com
Этот альбом доступен на нашем DC++ хабе: dc.pro-jazz.com

Треклист:

01 - One Note Samba 02:50
02 - Melodle d'Amour 02:53
03 - The Glft 02:50
04 - The Sweetest Sounds 02:06
05 - Dansero 02:43
06 - Blame It on the Bossa Nova 02:30
07 - Desafinado 02:46
08 - The Message 03:02
09 - Almost Like Being in Love 01:45
10 - Moon River 01:47
11 - The Coffee Song 02:14
12 - I Remember You 01:47
13 - Sweet Talk 02:23
14 - Oba Oba 02:11

Состав:
  • Vocals — Eydie Gorme
  • Conductor – Nick Perito (tracks: 1 to 6)
  • Guitar – Al Caiola, Mundell Lowe
  • Percussion – Johnny Pacheco
  • Saxophone – Boomy Richards
  • Trumpet – Clark Terry
Доп. инфо:

Формат записи/Источник записи: [TR24][OF]
Издание: Remastered
Год издания/переиздания диска: 1963/2019
Издатель (лейбл): RevOla
Продолжительность: 00:33:47
Наличие сканов в содержимом раздачи: Нет

Контейнер: FLAC (*.flac)
Тип рипа: tracks
Разрядность: 24/44,1
Количество каналов: 2.0

Источник (релизер): Qobuz

Лог проверки качества
foobar2000 1.3.16 / Dynamic Range Meter 1.1.1
log date: 2019-05-12 15:26:17

--------------------------------------------------------------------------------
Analyzed: Eydie Gorme / Blame It on the Bossa Nova
--------------------------------------------------------------------------------

DR         Peak         RMS     Duration Track
--------------------------------------------------------------------------------
DR12      -3.91 dB   -18.29 dB      2:50 01-One Note Samba
DR12      -3.96 dB   -18.57 dB      2:54 02-Melodle d'Amour
DR12      -4.17 dB   -18.93 dB      2:51 03-The Glft
DR11      -3.92 dB   -18.42 dB      2:06 04-The Sweetest Sounds
DR12      -3.62 dB   -19.11 dB      2:43 05-Dansero
DR12      -4.34 dB   -18.31 dB      2:30 06-Blame It on the Bossa Nova
DR12      -3.82 dB   -18.21 dB      2:46 07-Desafinado
DR11      -3.74 dB   -17.49 dB      3:02 08-The Message
DR12      -3.99 dB   -17.98 dB      1:46 09-Almost Like Being in Love
DR12      -4.04 dB   -18.81 dB      1:47 10-Moon River
DR13      -2.39 dB   -18.09 dB      2:15 11-The Coffee Song
DR12      -3.54 dB   -18.23 dB      1:48 12-I Remember You
DR10      -4.31 dB   -17.18 dB      2:24 13-Sweet Talk
DR11      -4.01 dB   -17.31 dB      2:11 14-Oba Oba
--------------------------------------------------------------------------------

Number of tracks:  14
Official DR value: DR12

Samplerate:        44100 Hz
Channels:          2
Bits per sample:   24
Bitrate:           1467 kbps
Codec:             FLAC
================================================================================
19:33
647
Нет комментариев. Ваш будет первым!