Вы используете незарегистрированную версию компонента "Вкладки"!

Поиск

1968 Cal Tjader - Sounds Out Burt Bacharach (1998 Remastered) {DCC Compact Classics} [24-44,1]

1968 Cal Tjader - Sounds Out Burt Bacharach (1998 Remastered) {DCC Compact Classics} [24-44,1]
Место записи:
Gotham Recording, New York City, NY; Western Recordings, Los Angeles, CA
Номер по каталогу:
DJZ 633
Носитель:
WEB
Формат:
PCM
Тип рипа:
tracks+.cue
Количество каналов:
2.0
Разрядность/ЧД:
24/44,1
Битрейт аудио:
lossless
Время звучания:
00:32:07
Наличие сканов:
web
Страна-производитель диска (релиза):
USA
Релизёр (источник):
M0p94ok
Лог проверки качества
foobar2000 1.3.16 / Dynamic Range Meter 1.1.1
log date: 2019-02-20 18:04:34

--------------------------------------------------------------------------------
Analyzed: Cal Tjader / Sounds Out Burt Bacharach (Remastered)
--------------------------------------------------------------------------------

DR         Peak         RMS     Duration Track
--------------------------------------------------------------------------------
DR11      -1.24 dB   -15.33 dB      3:01 01-Moneypenny Goes for Broke
DR11      -1.17 dB   -14.74 dB      4:22 02-What the World Needs Now Is Love
DR10      -1.17 dB   -14.57 dB      3:14 03-Anyone Who Had a Heart
DR10      -1.20 dB   -14.91 dB      3:15 04-Don't Make Me Over
DR11      -1.24 dB   -14.65 dB      4:54 05-A Message to Michael
DR9       -1.17 dB   -12.36 dB      3:22 06-My Little Red Book
DR11      -1.17 dB   -13.75 dB      3:31 07-I Say a Little Prayer
DR9       -1.20 dB   -12.34 dB      3:19 08-Walk on By
DR9       -1.20 dB   -11.84 dB      3:13 09-You'll Never Get to Heaven (If You Break My Heart)
--------------------------------------------------------------------------------

Number of tracks:  9
Official DR value: DR10

Samplerate:        44100 Hz
Channels:          2
Bits per sample:   24
Bitrate:           1511 kbps
Codec:             FLAC
================================================================================
Any questions - support@pro-jazz.com. Есть вопросы - support@pro-jazz.com
17:10
266
Нет комментариев. Ваш будет первым!