Поиск

2020 Jeff Parker - Suite for Max Brown {International Anthem} [24-44,1]

2020 Jeff Parker - Suite for Max Brown {International Anthem} [24-44,1]
Треклист:

◈ 01 - Build a Nest (feat. Ruby Parker) (00:02:13)
◈ 02 - C'mon Now (00:00:25)
◈ 03 - Fusion Swirl (00:05:32)
◈ 04 - After the Rain (00:04:45)
◈ 05 - Metamorphoses (00:01:48)
◈ 06 - Gnarciss (00:02:12)
◈ 07 - Lydian, Etc. (00:00:55)
◈ 08 - Del Rio (00:01:38)
◈ 09 - 3 for L (00:04:47)
◈ 10 - Go Away (00:04:58)
◈ 11 - Max Brown (00:10:36)

Доп. инфо:

• Формат записи | Источник записи: [TR24][OF]
• Наличие водяных знаков: Нет
• Страна: USA
• Год издания релиза: 2020
• Жанр: Free Jazz | Modern Jazz
• Продолжительность: 00:39:54
• Источник: Qobuz
• Контейнер: FLAC (*.flac)
• Тип рипа: tracks
• Разрядность: 24/44,1
• Формат: WAV (flac.ape.wv)
• Количество каналов: 2.0
• Наличие сканов: front

 
Состав по трекам:

Build a Nest (feat. Ruby Parker)
Jeff Parker - drums, vocals, piano, electric guitar, Korg MS20
Ruby Parker - vocals

C’mon Now
Jeff Parker - sampling, editing

Fusion Swirl
Jeff Parker - electric guitar, bass guitar, samplers, percussion, vocals

After the Rain
Paul Bryan - bass guitar
Josh Johnson - electric piano
Jeff Parker - electric guitar and percussion
Jamire Williams - drums

Metamorphoses
Jeff Parker - glockenspiel, sequencer, sampler, Korg MS20

Gnarciss
Paul Bryan - bass guitar
Josh Johnson - alto saxophone
Katinka Kleijn - cello
Rob Mazurek - piccolo trumpet
Makaya McCraven - drums and sampler
Jeff Parker - electric guitar, JP-08, sampler, midi strings

Lydian, Etc
Paul Bryan - bass guitar
Jeff Parker - electric guitar, pandeiro, midi programming, etc.

Del Rio
Paul Bryan - bass guitar
Jeff Parker - electric guitar, mbira, sampler, Korg MS20, drums, electric piano

3 for L
Jay Bellerose - drums and percussion
Jeff Parker - electric guitar, Korg MS20

Go Away
Paul Bryan - bass guitar and vocals
Makaya McCraven - drums
Jeff Parker - electric guitar, vocals and sampler

Max Brown
Paul Bryan - bass guitar
Josh Johnson - alto saxophone
Jeff Parker - guitar, Korg MS20, JP-08
Nate Walcott - trumpet
Jamire Williams - drums

All songs composed by Jeff Parker (umjabuglafeesh music, BMI);
except “After The Rain” by John Coltrane, and “Gnarciss” which contains elements of “Black Narcissus” by Joe Henderson.

“C’mon Now” features samples from the Otis Redding recording “The Happy Song (Dum-Dum)." Produced under license from Atlantic Recording Corp. By Arrangement with Rhino Entertainment Company, a Warner Music Group Company.

All arrangements by Jeff Parker.

Engineered and edited by Jeff Parker at Headlands Center For The Arts, Sausalito, California and at home in Altadena, California.

Engineered, edited and mixed by Paul Bryan in Pacific Palisades, California.

Mastered by Dave Cooley at Elysian Masters, Los Angeles, California.

Produced by Paul Bryan and Jeff Parker.

Лог проверки качества
foobar2000 1.4.2 / Dynamic Range Meter 1.1.1
log date: 2020-01-26 15:58:48

--------------------------------------------------------------------------------
Analyzed: Jeff Parker / Suite for Max Brown
--------------------------------------------------------------------------------

DR         Peak         RMS     Duration Track
--------------------------------------------------------------------------------
DR6        0.00 dB    -7.85 dB      2:13 01-Build a Nest (feat. Ruby Parker)
DR8        0.00 dB    -9.67 dB      0:26 02-C'mon Now
DR7        0.00 dB    -8.74 dB      5:32 03-Fusion Swirl
DR6        0.00 dB    -6.99 dB      4:46 04-After the Rain
DR8        0.00 dB    -8.93 dB      1:49 05-Metamorphoses
DR7        0.00 dB    -7.55 dB      2:12 06-Gnarciss
DR8        0.00 dB   -11.32 dB      0:56 07-Lydian, Etc.
DR7        0.00 dB    -8.37 dB      1:38 08-Del Rio
DR7        0.00 dB    -8.77 dB      4:47 09-3 for L
DR6        0.00 dB    -6.63 dB      4:59 10-Go Away
DR7        0.00 dB    -7.85 dB     10:36 11-Max Brown
--------------------------------------------------------------------------------

Number of tracks:  11
Official DR value: DR7

Samplerate:        44100 Hz
Channels:          2
Bits per sample:   24
Bitrate:           1546 kbps
Codec:             FLAC
================================================================================
Приватный:
Нет (DHT включён)
Размер:
454.75 Мб (476,843,784 байт) » файлов: 12
Участники:
0 раздают, 9 качают (9 участников всего)
Внешние участники:
28 раздают, 9 качают (37 участников всего) [ Обновить ]
Есть вопросы - пишите личное сообщение пользователю M0p94ok.
18:05
27
Нет комментариев. Ваш будет первым!