Поиск

1964 Freddie Hubbard - Breaking Point (2015) {Blue Note} [24-192]

1964 Freddie Hubbard - Breaking Point (2015) {Blue Note} [24-192]
Дата записи диска:
7 мая 1964
Место записи:
Van Gelder Studio, Englewood Cliffs, New Jersey
Издатель (лейбл):
Треклист:

1    Breaking Point    10:18
2    Far Away    10:58
3    Blue Frenzy    6:23
4    D Minor Mint    6:23
5    Mirrors    6:05

Доп. инфо:

Формат записи/Источник записи: [TR24][OF]
Издание: Remastered
Год издания/переиздания диска: 1964/2015
Продолжительность: 00:40:11
Наличие сканов в содержимом раздачи: Нет

Контейнер: FLAC (*.flac)
Тип рипа: tracks
Разрядность: 24/192
Количество каналов: 2.0

Источник (релизер): Qobuz

Лог проверки качества
foobar2000 1.4.3 / Dynamic Range Meter 1.1.1
log date: 2020-01-25 10:04:06

--------------------------------------------------------------------------------
Analyzed: Freddie Hubbard / Breaking Point
--------------------------------------------------------------------------------

DR         Peak         RMS     Duration Track
--------------------------------------------------------------------------------
DR12      -0.11 dB   -17.13 dB     10:16 01-Breaking Point
DR10      -0.56 dB   -15.66 dB     10:58 02-Far Away
DR12       0.00 dB   -17.15 dB      6:25 03-Blue Frenzy
DR11      -0.68 dB   -16.12 dB      6:24 04-D Minor Mint
DR11      -2.59 dB   -19.50 dB      6:08 05-Mirrors
--------------------------------------------------------------------------------

Number of tracks:  5
Official DR value: DR11

Samplerate:        192000 Hz
Channels:          2
Bits per sample:   24
Bitrate:           5493 kbps
Codec:             FLAC
================================================================================
Приватный:
Нет (DHT включён)
Размер:
1.59 Гб (1,711,760,875 байт) » файлов: 9
Участники:
6 раздают, 0 качают (6 участников всего)
Внешние участники:
3 раздают, 1 качают (4 участников всего) [ Обновить ]
Есть вопросы - пишите личное сообщение пользователю M0p94ok.
13:33
27
Нет комментариев. Ваш будет первым!