Поиск

2018 Robert Mitchell - Epiphany {Depth Of Field} [24-44,1]

2018 Robert Mitchell - Epiphany {Depth Of Field} [24-44,1]
Стили:
Носитель:
WEB
Формат:
PCM
Тип рипа:
tracks
Контейнер:
FLAC (*.flac)
Количество каналов:
2.0
Разрядность/ЧД:
24/44,1
Формат записи/Источник записи:
[TR24][OF]
Время звучания:
00:24:27
Наличие сканов:
только обложка
Наличие водяных знаков:
нет
Страна-производитель диска (релиза):
USA
Релизёр (источник):
M0p94ok
Треклист:

1. Close Your Eyes, Make a Wish  02:46
2. Le Theatre Des Bouffes Du Nord  06:32
3. In the Shadow of Your Beauty  08:10
4. Epiphany  01:07
5. Le Theatre Des Bouffes Du Nord (alt Mix)  05:52

Лог проверки качества
foobar2000 1.3.16 / Dynamic Range Meter 1.1.1
log date: 2018-11-13 15:50:29

--------------------------------------------------------------------------------
Analyzed: Robert Mitchell / Epiphany
--------------------------------------------------------------------------------

DR         Peak         RMS     Duration Track
--------------------------------------------------------------------------------
DR14      -8.65 dB   -27.74 dB      2:47 01-Close Your Eyes, Make a Wish
DR12      -0.01 dB   -15.25 dB      6:32 02-Le Theatre Des Bouffes Du Nord
DR12      -0.30 dB   -18.01 dB      8:11 03-In the Shadow of Your Beauty
DR13      -7.52 dB   -24.91 dB      1:07 04-Epiphany
DR11      -0.01 dB   -14.33 dB      5:53 05-Le Theatre Des Bouffes Du Nord (alt Mix)
--------------------------------------------------------------------------------

Number of tracks:  5
Official DR value: DR13

Samplerate:        44100 Hz
Channels:          2
Bits per sample:   24
Bitrate:           1461 kbps
Codec:             FLAC
================================================================================
Приватный:
Нет (DHT включён)
Размер:
241.21 Мб (252,925,891 байт) » файлов: 8
Участники:
3 раздают, 0 качают (3 участников всего)
Внешние участники:
--- [ Обновить ]
Есть вопросы - пишите личное сообщение пользователю M0p94ok.
12:57
22
Нет комментариев. Ваш будет первым!