Вы используете незарегистрированную версию компонента "Вкладки"!

Поиск

2020 Yeliz Trio - Moon Palace {Quart de Lune} [24-48]

2020 Yeliz Trio - Moon Palace {Quart de Lune} [24-48]
Стили:
Доп. инфо:

Рожденная из встречи пианиста Матье Белиса, виолончелиста Николя Карпантье и перкуссиониста Томаса Островецкого, группа Yeliz Trio переносит нас на перекресток городской, классической и восточной музыки, под влиянием таких художников, как трио EST, Чик Кориа, Ануар Брахем, а также композиторов, таких как Равель, Барток и даже Шостакович.

Из этого наследия родилось своеобразное звучание: импрессионистские гармонии и мелизматический язык фортепиано, лирические или грубые звуки виолончели, трансовые и асимметричные ритмы ДАФ и другие перкуссии.

Колеблющаяся между светом и тенью, полная лирики и всегда обращенная к ритму и коллективной энергии, музыка трио погружает слушателя в мощную и поэтическую звуковую вселенную.

Лог проверки качества
foobar2000 1.4.2 / Dynamic Range Meter 1.1.1
log date: 2020-01-26 16:14:51

--------------------------------------------------------------------------------
Analyzed: Yeliz Trio / Moon Palace
--------------------------------------------------------------------------------

DR         Peak         RMS     Duration Track
--------------------------------------------------------------------------------
DR7       -0.11 dB   -11.64 dB      1:06 01-Akoibizzart
DR8       -0.12 dB   -10.37 dB      4:32 02-Bartok Fink
DR10      -0.11 dB   -13.71 dB      5:01 03-Colombienne
DR17      -0.11 dB   -20.74 dB      1:25 04-Metal Dingo
DR8       -1.06 dB   -11.60 dB      8:01 05-Winter Journey
DR10      -1.39 dB   -15.49 dB      4:25 06-Mitsu
DR5       -0.10 dB    -6.67 dB      4:56 07-Vitch
DR6       -0.11 dB   -12.26 dB      1:23 08-Cellofan
DR10      -0.97 dB   -17.07 dB      2:12 09-Ouverture
DR7       -0.11 dB   -11.56 dB      6:56 10-Moon Palace
DR12      -0.84 dB   -15.26 dB      3:08 11-Touyang
DR11      -0.11 dB   -14.99 dB      1:04 12-Akoispace
DR7       -0.12 dB    -9.58 dB      6:28 13-Artvax
DR8       -0.64 dB   -12.90 dB      6:35 14-Lakoiquicloc
DR8       -0.11 dB   -12.44 dB      4:16 15-Idondaly
--------------------------------------------------------------------------------

Number of tracks:  15
Official DR value: DR9

Samplerate:        48000 Hz
Channels:          2
Bits per sample:   24
Bitrate:           1455 kbps
Codec:             FLAC
================================================================================
Any questions - support@pro-jazz.com. Есть вопросы - support@pro-jazz.com
19:16
348
Нет комментариев. Ваш будет первым!