Вы используете незарегистрированную версию компонента "Вкладки"!

Поиск

2020 Jazz At Lincoln Center Orchestra - The Music of Wayne Shorter with Wynton Marsalis {Blue Engine} [24-96]

2020 Jazz At Lincoln Center Orchestra - The Music of Wayne Shorter with Wynton Marsalis {Blue Engine} [24-96]
Стили:
Битрейт аудио:
lossless
Доп. инфо:

• Формат записи | Источник записи: [TR24][OF]
• Наличие водяных знаков: Нет
• Год издания релиза: 2020
• Лейбл: Blue Engine Records
• Продолжительность: 01:27:43
• Источник: internet
• WEB релиз: ссылка
• Контейнер: FLAC (*.flac)
• Тип рипа: tracks
• Разрядность: 24/96
• Формат: PCM
• Количество каналов: 2.0
• Наличие сканов: front

Лог проверки качества
foobar2000 1.4.2 / Замер динамического диапазона (DR) 1.1.1
Дата отчёта:  2020-03-19 13:14:03

--------------------------------------------------------------------------------
Анализ:   Jazz At Lincoln Center Orchestra / The Music of Wayne Shorter
--------------------------------------------------------------------------------

DR         Пики         RMS           Продолжительность трека
--------------------------------------------------------------------------------
DR8       -0.30 дБ   -10.55 дБ     10:20 01-Yes or No
DR9       -0.31 дБ   -13.55 дБ      7:40 02-Diana
DR9       -0.31 дБ   -11.63 дБ      7:43 03-Hammer Head
DR9       -0.31 дБ   -12.22 дБ      7:21 04-Contemplation
DR8       -0.31 дБ   -10.48 дБ      7:52 05-Endangered Species
DR9       -0.31 дБ   -12.79 дБ     10:03 06-Lost
DR9       -0.30 дБ   -12.46 дБ     10:28 07-Armageddon
DR7       -0.31 дБ    -9.20 дБ      8:10 08-The Three Marias
DR11      -0.32 дБ   -14.90 дБ      5:03 09-Teru
DR9        0.00 дБ   -12.48 дБ     13:04 10-Mama "G"
--------------------------------------------------------------------------------

Количество треков: 10
Реальные значения DR: DR9

Частота:   96000 Гц
Каналов:   2
Разрядность:   24
Битрейт:   2946 кбит/с
Кодек:   FLAC
================================================================================
Any questions - support@pro-jazz.com. Есть вопросы - support@pro-jazz.com
12:06
334
Нет комментариев. Ваш будет первым!