Вы используете незарегистрированную версию компонента "Вкладки"!

Поиск

2018 Edmony Krater - An Ka Sonje {Heavenly Sweetness} [24-44,1]

2018 Edmony Krater - An Ka Sonje {Heavenly Sweetness} [24-44,1]
Стили:
Битрейт аудио:
lossless
Доп. инфо:

Формат записи/Источник записи: [TR24][OF]
Наличие водяных знаков: Нет
Год издания/переиздания диска: 2018
Издатель (лейбл): Heavenly Sweetness
Продолжительность: 00:41:28
Наличие сканов в содержимом раздачи: Нет

Контейнер: FLAC (*.flac)
Тип рипа: tracks
Разрядность: 24/44,1
Формат: PCM
Количество каналов: 2.0

Источник (релизер): qobuz.com (tuoro)

Лог проверки качества
foobar2000 1.4.6 / Замер динамического диапазона (DR) 1.1.1
Дата отчёта:  2020-03-19 07:15:25

--------------------------------------------------------------------------------
Анализ:   Edmony Krater / An ka sonjé
--------------------------------------------------------------------------------

DR         Пики         RMS           Продолжительность трека
--------------------------------------------------------------------------------
DR7       -0.01 дБ    -9.84 дБ      5:06 01-Nou kontan
DR8       -0.01 дБ    -9.96 дБ      4:26 02-Jouwé Tanbou
DR9       -0.01 дБ   -10.96 дБ      4:14 03-A pa jôdi
DR7       -0.01 дБ    -8.80 дБ      3:34 04-Mi yo rivé
DR7       -0.01 дБ    -8.79 дБ      4:48 05-An ba jouk
DR8       -0.01 дБ    -9.64 дБ      4:43 06-Lagè
DR8       -0.01 дБ    -9.10 дБ      4:59 07-Ti Jan ka
DR7       -0.01 дБ   -10.46 дБ      3:09 08-Donga èvè sé neg mawon
DR9       -0.02 дБ   -10.91 дБ      3:15 09-An ka sonjé
DR7       -0.01 дБ    -8.36 дБ      3:14 10-Encore un peu
--------------------------------------------------------------------------------

Количество треков: 10
Реальные значения DR: DR8

Частота:   44100 Гц
Каналов:   2
Разрядность:   24
Битрейт:   1494 кбит/с
Кодек:   FLAC
================================================================================
Any questions - support@pro-jazz.com. Есть вопросы - support@pro-jazz.com
10:10
246
Нет комментариев. Ваш будет первым!