Вы используете незарегистрированную версию компонента "Вкладки"!

Поиск

2020 Ivar Grydeland - In the Arctic Dreamtime {Rune Grammofon} [24-48]

2020 Ivar Grydeland - In the Arctic Dreamtime {Rune Grammofon} [24-48]
Носитель:
WEB
Формат:
PCM
Тип рипа:
tracks+.cue
Контейнер:
FLAC (*.flac)
Количество каналов:
2.0
Разрядность/ЧД:
24/48
Время звучания:
01:05:00
Наличие сканов:
web
Релизёр (источник):
Alexbikkert
Доп. инфо:

Источник: Rune Grammofon

Лог проверки качества
foobar2000 1.3.7 / Dynamic Range Meter 1.1.1
log date: 2020-01-22 00:02:15

––––––––––––––––––––––––––––––––––––––––
Analyzed: Ivar Grydeland & Henry Kaiser / In the Arctic Dreamtime
––––––––––––––––––––––––––––––––––––––––

DR Peak RMS Duration Track
––––––––––––––––––––––––––––––––––––––––
DR10 -0.41 dB -14.10 dB 17:20 01-Roald Amundsen 1925
DR10 -0.62 dB -13.01 dB 13:32 02-Spitsbergen
DR8 -1.11 dB -13.53 dB 14:33 03-To the North Pole
DR9 -0.91 dB -11.73 dB 3:57 04-N-25
DR7 -1.28 dB -13.52 dB 15:41 05-Into the Arctic Dreamtime
––––––––––––––––––––––––––––––––––––––––

Number of tracks: 5
Official DR value: DR9

Samplerate: 48000 Hz
Channels: 2
Bits per sample: 24
Bitrate: 1255 kbps
Codec: FLAC
================================================================================
Any questions - support@pro-jazz.com. Есть вопросы - support@pro-jazz.com
00:37
283
Нет комментариев. Ваш будет первым!