Вы используете незарегистрированную версию компонента "Вкладки"!

Поиск

2015 Scott DuBois - Winter Light {ACT Music} [24-96]

2015 Scott DuBois - Winter Light {ACT Music} [24-96]
Издатель (лейбл):
Доп. инфо:

Формат записи/Источник записи: [TR24][OF]
Наличие водяных знаков: Нет
Год издания/переиздания диска: 2015
Продолжительность: 01:08:39
Наличие сканов в содержимом раздачи: Буклет PDF

Контейнер: FLAC (*.flac)
Тип рипа: tracks
Разрядность: 24/96
Формат: PCM
Количество каналов: 2.0

Источник: highresaudio.com

Лог проверки качества
foobar2000 1.3.9 / Dynamic Range Meter 1.1.1
log date: 2019-12-30 14:40:48

--------------------------------------------------------------------------------
Analyzed: Scott DuBois / Winter Light
--------------------------------------------------------------------------------

DR         Peak         RMS     Duration Track
--------------------------------------------------------------------------------
DR10      -0.78 dB   -14.82 dB     10:16 01-First Light Tundra
DR8       -0.78 dB   -13.37 dB     14:36 02-Early Morning Forest
DR7       -0.78 dB   -11.93 dB      7:33 03-Late Morning Snow
DR7       -0.78 dB   -11.43 dB     14:32 04-Noon White Mountain
DR9       -0.78 dB   -12.88 dB      7:19 05-Afternoon Ice Fog
DR7       -0.78 dB   -10.17 dB      9:53 06-Evening Blizzard
DR8       -0.78 dB   -13.18 dB      4:29 07-Night Tundra
--------------------------------------------------------------------------------

Number of tracks:  7
Official DR value: DR8

Samplerate:        96000 Hz
Channels:          2
Bits per sample:   24
Bitrate:           2788 kbps
Codec:             FLAC
================================================================================
Any questions - support@pro-jazz.com. Есть вопросы - support@pro-jazz.com
14:23
274
Нет комментариев. Ваш будет первым!