Вы используете незарегистрированную версию компонента "Вкладки"!

Поиск

2013 Torsten Goods - Love Comes To Town {ACT Music} [24-88,2]

2013 Torsten Goods - Love Comes To Town {ACT Music} [24-88,2]
Стили:
Издатель (лейбл):
Доп. инфо:

Формат записи/Источник записи: [TR24][OF]
Наличие водяных знаков: Нет
Год издания/переиздания диска: 2013
Продолжительность: 60:37
Наличие сканов в содержимом раздачи: Буклет PDF

Контейнер: FLAC (*.flac)
Тип рипа: tracks
Разрядность: 24/88,2
Формат: PCM
Количество каналов: 2.0

Источник: highresaudio.com

Лог проверки качества
foobar2000 1.3.9 / Dynamic Range Meter 1.1.1
log date: 2019-12-30 15:05:41

--------------------------------------------------------------------------------
Analyzed: Torsten Goods / Love Comes To Town
--------------------------------------------------------------------------------

DR         Peak         RMS     Duration Track
--------------------------------------------------------------------------------
DR7       -0.56 dB    -9.24 dB      4:16 01-You Wind Me Up
DR8       -0.56 dB   -10.85 dB      4:01 02-When Love Comes To Town
DR8       -0.56 dB   -10.14 dB      4:10 03-Freedom Every Day
DR8       -0.56 dB    -9.57 dB      5:27 04-Put It Where You Want It
DR8       -0.56 dB    -9.36 dB      3:51 05-Unlucky Like Me
DR9       -0.56 dB   -11.23 dB      4:06 06-Right Here Waiting
DR8       -0.56 dB    -9.79 dB      4:40 07-Brutal Truth
DR7       -0.56 dB    -8.59 dB      4:21 08-Weekend At The A-Trane
DR8       -1.07 dB   -10.90 dB      5:05 09-Someone Like You
DR8       -0.60 dB    -9.90 dB      4:48 10-Summer Lovin
DR7       -0.60 dB    -8.57 dB      3:32 11-Outa Here
DR8       -0.60 dB   -11.29 dB      5:35 12-Night Life
DR8       -0.60 dB   -10.69 dB      2:56 13-They Can't Take That Away From Me
DR8       -0.34 dB    -9.29 dB      3:48 14-Berlin P.M.
--------------------------------------------------------------------------------

Number of tracks:  14
Official DR value: DR8

Samplerate:        88200 Hz
Channels:          2
Bits per sample:   24
Bitrate:           2869 kbps
Codec:             FLAC
================================================================================
Any questions - support@pro-jazz.com. Есть вопросы - support@pro-jazz.com
15:17
292
Нет комментариев. Ваш будет первым!