Вы используете незарегистрированную версию компонента "Вкладки"!

Поиск

2012 Nils Landgren - Christmas With My Friends III {ACT Music} [24-88,2]

2012 Nils Landgren - Christmas With My Friends III {ACT Music} [24-88,2]
Стили:
Издатель (лейбл):
Доп. инфо:

Формат записи/Источник записи: [TR24][OF]
Наличие водяных знаков: Нет
Год издания/переиздания диска: 2012
Продолжительность: 54:16
Наличие сканов в содержимом раздачи: Буклет PDF

Контейнер: FLAC (*.flac)
Тип рипа: tracks
Разрядность: 24/88,2
Формат: PCM
Количество каналов: 2.0

Источник: highresaudio.com

Лог проверки качества
foobar2000 1.3.9 / Dynamic Range Meter 1.1.1
log date: 2019-12-30 14:19:32

--------------------------------------------------------------------------------
Analyzed: Nils Landgren / Christmas with My Friends III
--------------------------------------------------------------------------------

DR         Peak         RMS     Duration Track
--------------------------------------------------------------------------------
DR11      -2.01 dB   -18.18 dB      3:08 01-Christmas Is Here
DR9       -0.61 dB   -13.47 dB      3:40 02-Dagen är kommen
DR10      -0.61 dB   -13.34 dB      3:17 03-Ett Barn är fött
DR10      -2.44 dB   -17.37 dB      3:50 04-Imagine
DR9       -0.61 dB   -13.06 dB      4:00 05-Someday At Christmas
DR11      -0.61 dB   -14.26 dB      2:53 06-Somebody Talkin'
DR13      -0.61 dB   -18.31 dB      3:52 07-Giv mig ej glans
DR10      -0.61 dB   -13.47 dB      3:09 08-Ich steh' an Deiner Krippen hier
DR12      -0.86 dB   -16.58 dB      2:44 09-Away In A Manger
DR12      -1.12 dB   -17.45 dB      3:33 10-Gläd dig, du Kristi brud
DR11      -0.61 dB   -15.14 dB      4:16 11-River
DR11      -0.61 dB   -15.66 dB      4:21 12-Nativity Carol
DR13      -4.01 dB   -20.40 dB      2:43 13-Bethlehem Down
DR10      -0.61 dB   -12.97 dB      3:29 14-Tochter Zion
DR7       -0.61 dB   -10.83 dB      5:21 15-Infant Holy, Infant Lowly
--------------------------------------------------------------------------------

Number of tracks:  15
Official DR value: DR11

Samplerate:        88200 Hz
Channels:          2
Bits per sample:   24
Bitrate:           2672 kbps
Codec:             FLAC
================================================================================
Any questions - support@pro-jazz.com. Есть вопросы - support@pro-jazz.com
00:15
252
Нет комментариев. Ваш будет первым!