Вы используете незарегистрированную версию компонента "Вкладки"!

Поиск

2020 Gregoire Maret, Romain Collin, Bill Frisell - Americana {ACT Music} [24-96]

2020 Gregoire Maret, Romain Collin, Bill Frisell - Americana {ACT Music} [24-96]
Стили:
Издатель (лейбл):
Битрейт аудио:
lossless
Доп. инфо:

Формат записи/Источник записи: [TR24][OF]
Наличие водяных знаков: Нет
Год издания: 2020
Продолжительность: 00:54:30
Наличие сканов в содержимом раздачи: Буклет PDF
Контейнер: FLAC (*.flac)
Тип рипа: tracks
Разрядность: 24/96
Формат: PCM
Количество каналов: 2.0
Источник (релизер): highresaudio.com

Лог проверки качества
foobar2000 1.4.8 / Dynamic Range Meter 1.1.1
log date: 2020-04-24 00:52:46

--------------------------------------------------------------------------------
Analyzed: Gregoire Maret, Romain Collin & Bill Frisell / Americana
--------------------------------------------------------------------------------

DR         Peak         RMS     Duration Track
--------------------------------------------------------------------------------
DR12      -0.20 dB   -16.15 dB      3:08 01-Brothers in Arms
DR12      -0.20 dB   -14.33 dB      3:58 02-Small Town
DR12      -0.20 dB   -16.26 dB      6:16 03-Rain Rain
DR13      -0.20 dB   -15.31 dB      4:03 04-San Luis Obispo
DR11      -1.02 dB   -14.84 dB      5:16 05-Back Home
DR9       -0.80 dB   -13.12 dB      5:27 06-Wichita Lineman
DR9       -0.52 dB   -13.89 dB      7:07 07-The Sail
DR8       -0.51 dB   -12.76 dB      8:14 08-Re: Stacks
DR11      -0.76 dB   -17.12 dB      6:11 09-Still
DR11      -0.52 dB   -14.08 dB      4:50 10-Re: Stacks (Radio Edit)
--------------------------------------------------------------------------------

Number of tracks:  10
Official DR value: DR11
Samplerate:        96000 Hz
Channels:          2
Bits per sample:   24
Bitrate:           2831 kbps
Codec:             FLAC
================================================================================
Any questions - support@pro-jazz.com. Есть вопросы - support@pro-jazz.com
18:37
274
Нет комментариев. Ваш будет первым!