Вы используете незарегистрированную версию компонента "Вкладки"!

Поиск

1962 Louis Armstrong - Mack the Knife (2017) {2xHD} [24-192]

1962 Louis Armstrong - Mack the Knife (2017) {2xHD} [24-192]
Стили:
Битрейт аудио:
lossless
Доп. инфо:

Формат записи/Источник записи: [TR24][OF]
Издание: Remastered
Год издания/переиздания диска: 1962/2017
Жанр: Vocal Jazz, Dixieland
Издатель (лейбл): 2xHD
Продолжительность: 00:46:56
Наличие сканов в содержимом раздачи: Буклет PDF

Контейнер: FLAC (*.flac)
Тип рипа: tracks
Разрядность: 24/192
Количество каналов: 2.0

Источник (релизер): HDtracks

Лог проверки качества
foobar2000 1.4.3 / Dynamic Range Meter 1.1.1
log date: 2020-04-24 07:28:49

--------------------------------------------------------------------------------
Analyzed: Louis Armstrong / Mack the Knife
--------------------------------------------------------------------------------

DR         Peak         RMS     Duration Track
--------------------------------------------------------------------------------
DR11      -2.05 dB   -17.20 dB      2:46 01-When It's Sleepy Time Down South
DR11      -1.11 dB   -15.07 dB      4:33 02-(Back Home Again In) Indiana
DR12      -1.82 dB   -19.05 dB      5:21 03-Give Me a Kiss to Build a Dream On
DR12      -0.85 dB   -17.57 dB      2:55 04-My Bucket's Got a Hole in It
DR13      -1.92 dB   -18.48 dB      3:23 05-Mack the Knife
DR12      -2.34 dB   -17.26 dB      3:28 06-Blueberry Hill
DR11      -2.37 dB   -16.65 dB      3:50 07-When the Saints Go Marching In
DR13      -2.31 dB   -18.11 dB      4:06 08-Ole Miss
DR12      -2.92 dB   -18.76 dB      3:12 09-High Society Calypso
DR13      -2.61 dB   -20.52 dB      3:32 10-C'est si bon
DR13      -2.08 dB   -20.06 dB      4:53 11-La vie en rose
DR12      -2.40 dB   -18.53 dB      5:06 12-The Faithful Hussar
--------------------------------------------------------------------------------

Number of tracks:  12
Official DR value: DR12

Samplerate:        192000 Hz
Channels:          2
Bits per sample:   24
Bitrate:           4809 kbps
Codec:             FLAC
================================================================================
Any questions - support@pro-jazz.com. Есть вопросы - support@pro-jazz.com
07:01
246
Нет комментариев. Ваш будет первым!