Вы используете незарегистрированную версию компонента "Вкладки"!

Поиск

2020 Nick Colionne - Finger Painting {Trippin N Rhythm} [24-96]

2020 Nick Colionne - Finger Painting {Trippin N Rhythm} [24-96]
Стили:
Битрейт аудио:
lossless
Доп. инфо:

Формат записи/Источник записи: [TR24][OF]
Наличие водяных знаков: Нет
Год издания: 2020
Издатель (лейбл): Trippin N Rhythm Records
Продолжительность: 00:43:56
Наличие сканов в содержимом раздачи: Только обложка альбома
Контейнер: FLAC (*.flac)
Тип рипа: tracks
Разрядность: 24/96
Формат: PCM
Количество каналов: 2.0
Источник (релизер): qobuz.com

Лог проверки качества
foobar2000 1.4.8 / Dynamic Range Meter 1.1.1
log date: 2020-04-24 00:44:24

--------------------------------------------------------------------------------
Analyzed: Nick Colionne / Finger Painting
--------------------------------------------------------------------------------

DR         Peak         RMS     Duration Track
--------------------------------------------------------------------------------
DR8       -0.12 dB    -9.67 dB      4:07 01-Let's Get Serious
DR10      -0.09 dB   -11.69 dB      4:08 02-Circles
DR11      -0.12 dB   -12.56 dB      3:49 03-Romantic Nites
DR9       -0.12 dB   -10.61 dB      3:58 04-Spankies
DR11      -0.09 dB   -12.25 dB      4:16 05-Call Me Love
DR9       -0.08 dB   -10.97 dB      3:47 06-Right Around The Corner
DR12      -0.12 dB   -14.33 dB      3:36 07-The Closer I Get To You
DR11      -0.08 dB   -12.06 dB      3:54 08-Just Let it Be
DR10      -0.12 dB   -11.65 dB      4:37 09-Only 2CU Smile
DR8       -0.12 dB    -9.58 dB      3:37 10-Chi-Town
DR9       -0.12 dB   -11.12 dB      4:13 11-Riding
--------------------------------------------------------------------------------

Number of tracks:  11
Official DR value: DR10
Samplerate:        96000 Hz
Channels:          2
Bits per sample:   24
Bitrate:           2896 kbps
Codec:             FLAC
================================================================================
Any questions - support@pro-jazz.com. Есть вопросы - support@pro-jazz.com
18:27
272
Нет комментариев. Ваш будет первым!