Поиск

2020 Giorgio Alessani - Kissed by the Mist {Quart de Lune} [24-44,1]

2020 Giorgio Alessani - Kissed by the Mist {Quart de Lune} [24-44,1]
Стили:
Битрейт аудио:
lossless
Доп. инфо:

Формат записи/Источник записи: [TR24][OF]
Наличие водяных знаков: Нет
Год издания: 2020
Издатель (лейбл): Quart de Lune
Продолжительность: 00:44:44
Наличие сканов в содержимом раздачи: Только обложка альбома
Контейнер: FLAC (*.flac)
Тип рипа: tracks
Разрядность: 24/44.1
Формат: PCM
Количество каналов: 2.0
Источник (релизер): prestomusic.com

Лог проверки качества
foobar2000 1.4.8 / Dynamic Range Meter 1.1.1
log date: 2020-09-25 10:46:17

--------------------------------------------------------------------------------
Analyzed: Giorgio Alessani / Kissed by the Mist
--------------------------------------------------------------------------------

DR         Peak         RMS     Duration Track
--------------------------------------------------------------------------------
DR9       -0.10 dB   -11.71 dB      4:15 01-Blood in the Water
DR9       -0.79 dB   -11.97 dB      4:44 02-Not Much Has Changed
DR9       -2.04 dB   -13.59 dB      4:31 03-Eventually
DR8       -1.30 dB   -11.28 dB      3:57 04-50 Shades of Blue
DR8       -1.03 dB   -11.65 dB      5:09 05-How Many Ways Are There to Say I'm Sorry
DR9       -4.11 dB   -15.38 dB      4:20 06-I Now Regret
DR8       -1.07 dB   -11.95 dB      4:40 07-Do I Think About You Every Now and Then
DR9       -3.91 dB   -15.60 dB      3:54 08-A Place to Belong
DR10      -1.00 dB   -12.96 dB      4:24 09-I Used to Play Around
DR8       -1.01 dB   -11.85 dB      4:53 10-Kissed by the Mist
--------------------------------------------------------------------------------

Number of tracks:  10
Official DR value: DR9
Samplerate:        44100 Hz
Channels:          2
Bits per sample:   24
Bitrate:           1569 kbps
Codec:             FLAC
================================================================================
No seeders - write personal message to M0p94ok. Any questions - support@pro-jazz.com.
Нет сидеров - пишите в личку M0p94ok. Есть вопросы - support@pro-jazz.com
14:53
184
Нет комментариев. Ваш будет первым!