Поиск

2011 Paul Motian - The Windmills Of Your Mind {Winter&Winter 910 182-2} [24-48]

2011 Paul Motian - The Windmills Of Your Mind {Winter&Winter 910 182-2} [24-48]
Дата записи диска:
сентябрь 2010
Место записи:
Sear Sound, New York City, NY, USA
Дата издания диска:
9 августа 2011
Номер по каталогу:
910 182-2
Носитель:
WEB
Формат:
PCM
Тип рипа:
tracks+.cue
Количество каналов:
2.0
Разрядность/ЧД:
24/48
Битрейт аудио:
lossless
Время звучания:
00:52:22
Наличие сканов:
web
Страна-производитель диска (релиза):
USA
Релизёр (источник):
M0p94ok
Лог проверки качества
foobar2000 1.5.5 / Dynamic Range Meter 1.1.1
log date: 2020-10-23 12:51:04

--------------------------------------------------------------------------------
Analyzed: Paul Motian / The Windmills Of Your Mind
--------------------------------------------------------------------------------

DR         Peak         RMS     Duration Track
--------------------------------------------------------------------------------
DR15      -1.72 dB   -19.96 dB      2:27 01-Introduction (1)
DR14      -0.32 dB   -17.30 dB      3:51 02-Tennessee Waltz
DR14      -0.27 dB   -16.92 dB      6:46 03-The Windmills of Your Mind
DR12      -3.20 dB   -18.83 dB      1:57 04-Let’s Face The Music And Dance
DR13      -1.73 dB   -19.01 dB      3:29 05-Lover Man
DR13      -0.74 dB   -18.18 dB      2:38 06-It’S Been a Long, Long Time
DR13      -0.29 dB   -19.54 dB      2:22 07-Little Foot
DR12      -1.51 dB   -17.37 dB      3:15 08-Easy Living
DR11      -4.20 dB   -19.19 dB      2:42 09-I’Ve Got a Crush On You
DR14      -1.43 dB   -19.04 dB      2:31 10-Backup
DR13      -0.33 dB   -17.46 dB      4:00 11-I Loves You Porgy
DR14      -0.31 dB   -18.58 dB      2:09 12-Trieste
DR13      -2.16 dB   -18.34 dB      3:18 13-If I Could Be With You
DR15      -1.27 dB   -20.97 dB      2:09 14-Wednesday’s Gone
DR15      -0.28 dB   -18.16 dB      5:44 15-I Remember You
DR14      -3.42 dB   -19.76 dB      3:05 16-Introduction (2)
--------------------------------------------------------------------------------

Number of tracks:  16
Official DR value: DR13

Samplerate:        48000 Hz
Channels:          2
Bits per sample:   24
Bitrate:           1440 kbps
Codec:             FLAC
================================================================================
No seeders - write personal message to M0p94ok. Any questions - support@pro-jazz.com.
Нет сидеров - пишите в личку M0p94ok. Есть вопросы - support@pro-jazz.com
13:11
201
Нет комментариев. Ваш будет первым!