Вы используете незарегистрированную версию компонента "Вкладки"!

Поиск

2020 Adam Baldych, Vincent Courtois, Rogier Telderman - Clouds {ACT Music} [24-88,2]

2020 Adam Baldych, Vincent Courtois, Rogier Telderman - Clouds {ACT Music} [24-88,2]
Стили:
Издатель (лейбл):
Битрейт аудио:
lossless
Доп. инфо:

Формат записи/Источник записи: [TR24][OF]
Наличие водяных знаков: Нет
Год издания: 2020
Продолжительность: 00:50:45
Наличие сканов в содержимом раздачи: Буклет PDF
Контейнер: FLAC (*.flac)
Тип рипа: tracks
Разрядность: 24/88.2
Формат: PCM
Количество каналов: 2.0
Источник (релизер): highresaudio.com

Лог проверки качества
foobar2000 1.4.8 / Dynamic Range Meter 1.1.1
log date: 2020-09-25 11:16:17

--------------------------------------------------------------------------------
Analyzed: Adam Baldych, Vincent Courtois, Rogier Telderman / Clouds
--------------------------------------------------------------------------------

DR         Peak         RMS     Duration Track
--------------------------------------------------------------------------------
DR10      -0.95 dB   -14.85 dB      7:06 01-Clouds
DR10      -0.95 dB   -13.93 dB      5:19 02-Early Spring
DR10      -0.95 dB   -13.92 dB      4:43 03-Floricel
DR10      -0.95 dB   -14.44 dB      4:09 04-Work in Progress
DR11      -0.95 dB   -15.51 dB      6:37 05-The Beginning of a Dream
DR11      -0.95 dB   -16.05 dB      5:12 06-And So
DR15      -0.95 dB   -22.27 dB      1:09 07-Interlude
DR11      -0.95 dB   -15.06 dB      4:51 08-Jardin
DR10      -1.18 dB   -16.01 dB      5:45 09-In Love in Hanoï
DR10      -1.37 dB   -16.25 dB      2:16 10-Troubadour
DR13      -0.95 dB   -17.55 dB      3:45 11-Au Desert
--------------------------------------------------------------------------------

Number of tracks:  11
Official DR value: DR11
Samplerate:        88200 Hz
Channels:          2
Bits per sample:   24
Bitrate:           2387 kbps
Codec:             FLAC
================================================================================
Any questions - support@pro-jazz.com. Есть вопросы - support@pro-jazz.com
16:59
245
Нет комментариев. Ваш будет первым!