Вы используете незарегистрированную версию компонента "Вкладки"!

Поиск

2019 Rob Soelkner 4tet & Strings - Places {Galileo Music Communication} [24-48]

2019 Rob Soelkner 4tet & Strings - Places {Galileo Music Communication} [24-48]
Стили:
Носитель:
WEB
Формат:
PCM
Тип рипа:
tracks+.cue
Количество каналов:
2.0
Разрядность/ЧД:
24/48
Битрейт аудио:
lossless
Время звучания:
00:53:56
Наличие сканов:
web
Релизёр (источник):
M0p94ok
Лог проверки качества
foobar2000 1.5.5 / Dynamic Range Meter 1.1.1
log date: 2020-10-23 18:21:02

--------------------------------------------------------------------------------
Analyzed: Rob Soelkner 4tet & Strings / Places
--------------------------------------------------------------------------------

DR         Peak         RMS     Duration Track
--------------------------------------------------------------------------------
DR10      -1.17 dB   -13.47 dB      2:17 01-Umbrella Hill
DR10      -1.17 dB   -13.10 dB      6:22 02-Mirtiotissa
DR11      -1.17 dB   -14.28 dB      5:46 03-Deer Alley
DR9       -1.17 dB   -13.88 dB      7:34 04-Crescent Street
DR12      -1.17 dB   -16.06 dB      6:11 05-In the Presence of the Sea
DR10      -1.17 dB   -14.55 dB      7:01 06-In the Band
DR10      -1.18 dB   -14.06 dB      6:20 07-Fast Fog
DR11      -1.18 dB   -15.14 dB      6:18 08-Human
DR10      -1.17 dB   -14.45 dB      6:10 09-Dave
--------------------------------------------------------------------------------

Number of tracks:  9
Official DR value: DR10

Samplerate:        48000 Hz
Channels:          2
Bits per sample:   24
Bitrate:           1536 kbps
Codec:             FLAC
================================================================================
Any questions - support@pro-jazz.com. Есть вопросы - support@pro-jazz.com
18:45
206
Нет комментариев. Ваш будет первым!