Вы используете незарегистрированную версию компонента "Вкладки"!

Поиск

2019 Erika Lindholm - Erika Lindholm {Music With Erik} [24-44,1]

2019 Erika Lindholm - Erika Lindholm {Music With Erik} [24-44,1]
Дата издания диска:
10 марта 2019
Носитель:
WEB
Формат:
PCM
Тип рипа:
tracks+.cue
Количество каналов:
2.0
Разрядность/ЧД:
24/44,1
Битрейт аудио:
lossless
Время звучания:
00:31:11
Наличие сканов:
web
Релизёр (источник):
M0p94ok
Лог проверки качества
foobar2000 1.5.5 / Dynamic Range Meter 1.1.1
log date: 2020-10-23 19:04:21

--------------------------------------------------------------------------------
Analyzed: Erika Lindholm / Erika Lindholm
--------------------------------------------------------------------------------

DR         Peak         RMS     Duration Track
--------------------------------------------------------------------------------
DR10       0.00 dB   -12.94 dB      5:37 01-Salome
DR10      -0.02 dB   -12.91 dB      3:34 02-Svalorna Flyger
DR11       0.00 dB   -13.58 dB      5:43 03-Musiquinha
DR10      -0.02 dB   -13.05 dB      7:35 04-Sagor och Svin
DR9        0.00 dB   -11.79 dB      5:02 05-Ragi
DR10      -0.55 dB   -13.75 dB      3:41 06-Vårvisa
--------------------------------------------------------------------------------

Number of tracks:  6
Official DR value: DR10

Samplerate:        44100 Hz
Channels:          2
Bits per sample:   24
Bitrate:           1435 kbps
Codec:             FLAC
================================================================================
Any questions - support@pro-jazz.com. Есть вопросы - support@pro-jazz.com
19:13
209
Нет комментариев. Ваш будет первым!