Вы используете незарегистрированную версию компонента "Вкладки"!

Поиск

2020 Gianmarco Scaglia & Paul Wertico Quartet – Dynamics in Meditation {Challenge} [24-96]

2020 Gianmarco Scaglia & Paul Wertico Quartet – Dynamics in Meditation {Challenge} [24-96]
Битрейт аудио:
lossless
Доп. инфо:

Формат записи/Источник записи: [TR24][OF]
Наличие водяных знаков: Нет
Год издания: 2020
Издатель (лейбл): Challenge Records
Продолжительность: 00:47:10
Наличие сканов в содержимом раздачи: Только обложка
Источник (релизер): qobuz
Контейнер: FLAC (*.flac)
Тип рипа: tracks
Разрядность: 24/96
Формат: PCM
Количество каналов: 2.0

Лог проверки качества
foobar2000 1.3.16 / Dynamic Range Meter 1.1.1
log date: 2020-04-02 00:25:39

––––––––––––––––––––––––––––––––––––––––
Analyzed: Gianmarco Scaglia & Paul Wertico Quartet / Dynamics in Meditation
––––––––––––––––––––––––––––––––––––––––

DR Peak RMS Duration Track
––––––––––––––––––––––––––––––––––––––––
DR6 -0.30 dB -8.90 dB 4:35 01-Black Two
DR8 -0.30 dB -12.16 dB 6:49 02-Colours
DR8 -0.30 dB -11.31 dB 8:19 03-Dave
DR8 -0.30 dB -11.55 dB 5:44 04-Giostra
DR8 -0.30 dB -12.92 dB 2:34 05-Dynamics in Meditation A
DR7 -0.30 dB -11.27 dB 0:42 06-Dynamics in Meditation B
DR8 -0.30 dB -12.96 dB 1:45 07-Dynamics in Meditation C
DR9 -0.30 dB -12.54 dB 2:02 08-Dynamics in Meditation D
DR8 -0.30 dB -10.75 dB 6:23 09-Ornette
DR11 -0.30 dB -14.06 dB 2:41 10-Sicily
DR9 -0.30 dB -11.65 dB 5:38 11-Sol
––––––––––––––––––––––––––––––––––––––––

Number of tracks: 11
Official DR value: DR8

Samplerate: 96000 Hz
Channels: 2
Bits per sample: 24
Bitrate: 2927 kbps
Codec: FLAC
================================================================================
Any questions - support@pro-jazz.com. Есть вопросы - support@pro-jazz.com
18:16
270
Нет комментариев. Ваш будет первым!