Вы используете незарегистрированную версию компонента "Вкладки"!

Поиск

2020 Laila Biali - Out of Dust {ACT Music} [24-88,2]

2020 Laila Biali - Out of Dust {ACT Music} [24-88,2]
Стили:
Битрейт аудио:
lossless
Доп. инфо:

Формат записи/Источник записи: [TR24][OF]
Наличие водяных знаков: Нет
Год издания: 2020
Продолжительность: 00:51:25
Наличие сканов в содержимом раздачи: Буклет PDF
Контейнер: FLAC (*.flac)
Тип рипа: tracks
Разрядность: 24/88.2
Формат: PCM
Количество каналов: 2.0
Источник (релизер): highresaudio.com

Лог проверки качества
foobar2000 1.4.8 / Dynamic Range Meter 1.1.1
log date: 2020-04-02 19:00:06

--------------------------------------------------------------------------------
Analyzed: Laila Biali / Out of Dust
--------------------------------------------------------------------------------

DR         Peak         RMS     Duration Track
--------------------------------------------------------------------------------
DR6       -0.37 dB    -8.40 dB      3:59 01-Revival
DR7       -0.54 dB    -9.44 dB      5:14 02-The Monolith
DR7       -0.09 dB   -10.29 dB      4:56 03-Glass House
DR7       -0.43 dB   -10.20 dB      4:39 04-Wendy's Song
DR7       -0.52 dB    -9.94 dB      4:13 05-Sugar
DR7       -0.35 dB    -9.53 dB      4:09 06-Alpha Waves
DR8       -0.60 dB   -11.64 dB      4:12 07-Au Pays De Cocagne
DR8       -0.62 dB   -11.88 dB      5:23 08-Take Me to the Alley
DR7       -0.31 dB    -9.49 dB      5:24 09-The Baker's Daughter
DR6       -0.48 dB    -9.08 dB      5:35 10-Broken Vessels
DR10      -0.80 dB   -13.04 dB      3:41 11-Take the Day Off
--------------------------------------------------------------------------------

Number of tracks:  11
Official DR value: DR7
Samplerate:        88200 Hz
Channels:          2
Bits per sample:   24
Bitrate:           2471 kbps
Codec:             FLAC
================================================================================
Any questions - support@pro-jazz.com. Есть вопросы - support@pro-jazz.com
07:57
202
Нет комментариев. Ваш будет первым!