Поиск

2020 Get The Blessing - Rarer Teas {Kartel} [24-48]

2020 Get The Blessing - Rarer Teas {Kartel} [24-48]
Треклист:

01. Toggle Buttons
02. Hayk (Orchestral Version)
03. Tarp (Aesoteric Mix)
04. Cornish Native (Live at Rich Mix)
05. Ulysses Frigidair
06. The Word for Moonlight is Moonlight (Orchestral Version)
07. Moot
08. Viking Death Moped (Thought Forms Mix)
09. Sunwise (Orchestral Version)
10. Poem de Terre
11. Conch (Live at Rich Mix)
12. Life’s too short to be shy
13. The Unnameable (Orchestral Version)
14. Corniche (Live at Rich Mix)
15. Pentopia (Patrick’s Dream)
16. Curve featuring Clair Hiles
17. OCDC (Orchestral Version)

Доп. инфо:

Формат записи/Источник записи: [TR24][OF]
Наличие водяных знаков: Нет
Год издания: 2020
Издатель (лейбл): Kartel Music Group
Продолжительность: 01:28:16
Наличие сканов в содержимом раздачи: Только обложка альбома
Контейнер: FLAC (*.flac)
Тип рипа: tracks
Разрядность: 24/48
Формат: PCM
Количество каналов: 2.0
Источник (релизер): highresaudio.com

Лог проверки качества
foobar2000 1.4.8 / Dynamic Range Meter 1.1.1
log date: 2020-01-16 21:01:08

--------------------------------------------------------------------------------
Analyzed: Get The Blessing / Rarer Teas
--------------------------------------------------------------------------------

DR         Peak         RMS     Duration Track
--------------------------------------------------------------------------------
DR10      -2.07 dB   -13.06 dB      3:36 01-Toggle Buttons
DR8       -0.01 dB   -10.23 dB      7:10 02-Hayk (Orchestral Version)
DR9        0.00 dB   -11.85 dB      4:56 03-Tarp (Aesoteric Mix)
DR11      -0.01 dB   -11.64 dB      5:20 04-Cornish Native (Live at Rich Mix)
DR11       0.00 dB   -13.00 dB      5:29 05-Ulysses Frigidair
DR11      -0.27 dB   -13.09 dB      4:50 06-The Word for Moonlight is Moonlight (Orchestral Version)
DR11       0.00 dB   -13.20 dB      3:59 07-Moot
DR9       -0.36 dB   -12.54 dB      3:14 08-Viking Death Moped (Thought Forms Mix)
DR11      -0.01 dB   -12.36 dB      6:22 09-Sunwise (Orchestral Version)
DR13      -0.01 dB   -14.70 dB      4:24 10-Poem de Terre
DR11      -0.60 dB   -14.70 dB      4:37 11-Conch (Live at Rich Mix)
DR9        0.00 dB   -10.13 dB      3:44 12-Life’s too short to be shy
DR10      -0.01 dB   -12.86 dB      8:18 13-The Unnameable (Orchestral Version)
DR10       0.00 dB   -11.77 dB      6:20 14-Corniche (Live at Rich Mix)
DR8       -0.40 dB   -11.41 dB      8:11 15-Pentopia (Patrick’s Dream)
DR16      -0.01 dB   -23.41 dB      3:50 16-Curve
DR10       0.00 dB   -12.04 dB      4:07 17-OCDC (Orchestral Version)
--------------------------------------------------------------------------------

Number of tracks:  17
Official DR value: DR11
Samplerate:        48000 Hz
Channels:          2
Bits per sample:   24
Bitrate:           1597 kbps
Codec:             FLAC
================================================================================
Приватный:
Нет (DHT включён)
Размер:
1022.72 Мб (1,072,400,262 байт) » файлов: 19
Участники:
0 раздают, 0 качают (0 участников всего)
Внешние участники:
8 раздают, 2 качают (10 участников всего) [ Обновить ]
Есть вопросы - пишите личное сообщение пользователю M0p94ok.
13:44
23
Нет комментариев. Ваш будет первым!