Поиск

2018 Jacob Sacks - Fishes {Clean Feed CF497CD} [24-96]

2018 Jacob Sacks - Fishes {Clean Feed CF497CD} [24-96]
Стили:
Место записи:
Systems Two Recording Studios, Brooklyn, NY, USA
Номер по каталогу:
Clean Feed CF497CD
Носитель:
WEB
Формат:
PCM
Тип рипа:
tracks
Контейнер:
FLAC (*.flac)
Количество каналов:
2.0
Разрядность/ЧД:
24/96
Время звучания:
00:46:21
Наличие сканов:
только обложка
Наличие водяных знаков:
нет
Релизёр (источник):
M0p94ok
Треклист:

01    Saloon    5:15
02    Carnegie The Sketcher    2:49
03    This Is A Song?    5:00
04    Carnegie Kvetches If    1:36
05    The Opener    6:38
06    Carnegie Echos Kent    2:01
07    Five Little Melodies    5:20
08    Carnegie Chutes Fork    2:07
09    Chopped In    7:51
10    Carnegie Stock Thew    2:19
11    Ill Blues    5:26

Лог проверки качества
foobar2000 1.3.16 / Dynamic Range Meter 1.1.1
log date: 2018-11-25 23:42:23

--------------------------------------------------------------------------------
Analyzed: Jacob Sacks / Fishes
--------------------------------------------------------------------------------

DR         Peak         RMS     Duration Track
--------------------------------------------------------------------------------
DR9       -0.20 dB   -12.54 dB      5:15 01-Saloon
DR14      -0.20 dB   -18.28 dB      2:49 02-Carnegie The Sketcher
DR13      -0.20 dB   -15.99 dB      5:00 03-This Is A Song-
DR12      -0.20 dB   -15.16 dB      1:36 04-Carnegie Kvetches If
DR11      -0.20 dB   -13.32 dB      6:38 05-The Opener
DR13      -0.20 dB   -17.08 dB      2:01 06-Carnegie Echos Kent
DR12      -0.20 dB   -15.95 dB      5:20 07-Five Little Melodies
DR11      -0.20 dB   -12.94 dB      2:07 08-Carnegie Chutes Fork
DR13      -0.20 dB   -19.22 dB      7:51 09-Chopped In
DR14      -0.20 dB   -17.25 dB      2:19 10-Carnegie Stock Thew
DR11      -0.20 dB   -14.44 dB      5:26 11-Ill Blues
--------------------------------------------------------------------------------

Number of tracks:  11
Official DR value: DR12

Samplerate:        96000 Hz
Channels:          2
Bits per sample:   24
Bitrate:           2829 kbps
Codec:             FLAC
================================================================================
Приватный:
Нет (DHT включён)
Размер:
913.43 Мб (957,800,562 байт) » файлов: 13
Участники:
5 раздают, 0 качают (5 участников всего)
Внешние участники:
--- [ Обновить ]
Есть вопросы - пишите личное сообщение пользователю M0p94ok.
12:46
19
Нет комментариев. Ваш будет первым!